Przedziwny problem z odczytem filmów na telewizorze z USB
#1
Czy ktoś mógłby mi wyjaśnić skąd się wziął pewien problem?

Wyrenderowałem sobie w Vegasie dwa pliki w formacie, tak jak to zwykle robię, MP4.
Wgrałem je na Pendrive i potem w domu wsadziłem go do telewizora typu Smart (posiada slot USB).
No i jeden plik się pięknie otwiera a drugi nie.
Co robię? Sprawdzam programem MediaInfo parametry obu plików i je porównuje.
No i widzę, że format ten sam, wszystko to samo ale jeden ma 50 Mb/s a drugi ma 130 Mb/s, ten pierwszy działa a drugi nie.
Myślę sobie - mam winowcajcę. Kolejnym razem wyrenderowałem pozostałe filmy w 50 Mb/s w nadziei, że to sprawiało telewizorowi trudność, ale... nic to nie pomogło! Kolejne pliki jakie wgrywam nie są odtwarzane przez mój telewizor.
No i z jakiego w ogóle powodu tak się dzieje?

Tutaj parametry pliku, który odtwarza telewizor:
Format                      : MPEG-4
Format profile              : Base Media / Version 2
Codec ID                    : mp42 (mp42/isom)
File size                   : 157 MiB
Duration                    : 25 s 959 ms
Overall bit rate mode       : Constant
Overall bit rate            : 50.7 Mb/s
Encoded date                : UTC 2016-07-27 19:19:37
Tagged date                 : UTC 2016-07-27 19:19:37

Video
ID                          : 2
Format                      : AVC
Format/Info                 : Advanced Video Codec
Format profile              : Baseline@L5
Format settings, CABAC      : No
Format settings, ReFrames   : 3 frames
Format settings, GOP        : M=1, N=15
Codec ID                    : avc1
Codec ID/Info               : Advanced Video Coding
Duration                    : 25 s 959 ms
Bit rate mode               : Constant
Bit rate                    : 50.0 Mb/s
Width                       : 1 920 pixels
Height                      : 818 pixels
Display aspect ratio        : 2.35:1
Frame rate mode             : Constant
Frame rate                  : 29.970 (30000/1001) FPS
Standard                    : NTSC

A tutaj parametry tego, który dograłem na pendrive a którego już nie odtwarza:
Format                      : MPEG-4
Format profile              : Base Media / Version 2
Codec ID                    : mp42 (mp42/isom)
File size                   : 5.61 GiB
Duration                    : 16 min
Overall bit rate mode       : Constant
Overall bit rate            : 50.2 Mb/s
Encoded date                : UTC 2016-08-04 13:26:43
Tagged date                 : UTC 2016-08-04 13:26:43

Video
ID                          : 2
Format                      : AVC
Format/Info                 : Advanced Video Codec
Format profile              : Baseline@L5.1
Format settings, CABAC      : No
Format settings, ReFrames   : 3 frames
Format settings, GOP        : M=1, N=15
Codec ID                    : avc1
Codec ID/Info               : Advanced Video Coding
Duration                    : 16 min
Bit rate mode               : Constant
Bit rate                    : 50.0 Mb/s
Width                       : 3 840 pixels
Height                      : 1 636 pixels
Display aspect ratio        : 2.35:1
Frame rate mode             : Constant
Frame rate                  : 29.970 (30000/1001) FPS
Standard                    : NTSC
Color space                 : YUV
Chroma subsampling          : 4:2:0
Bit depth                   : 8 bits
Scan type                   : Progressive
Bits/(Pixel*Frame)          : 0.266
Stream size                 : 5.59 GiB (100%)
Language                    : English
Encoded date                : UTC 2016-08-04 13:26:43
Tagged date                 : UTC 2016-08-04 13:26:43
Color range                 : Limited

Audio
ID                          : 1
Format                      : AAC
Format/Info                 : Advanced Audio Codec
Format profile              : LC
Codec ID                    : 40
Duration                    : 16 min
Bit rate mode               : Constant
Bit rate                    : 192 kb/s
Channel(s)                  :  channel0
Channel(s)_Original         : 2 channels
Channel positions           : Front: L R
Sampling rate               : 44.1 kHz
Frame rate                  : 43.066 FPS (1024 spf)
Compression mode            : Lossy
Stream size                 : 22.0 MiB (0%)
Language                    : English
Encoded date                : UTC 2016-08-04 13:26:43
Tagged date                 : UTC 2016-08-04 13:26:43




Dlaczego go nie odtwarza? To przecież te same pliki a jeden działa, drugi nie.
Ktoś wie co jest grane? Co tu jeszcze posprawdzać wśród tych dwóch klipów?
[Obrazek: n13.gif]
Odpowiedz
#2
Na mój gust problem leży w innych poziomach kodowania. Pierwszy klip masz z poziomem 5.0, drugi 5.1. Być może twój TV nie przyjmuje 5.1.
Odpowiedz
#3
Zmień rozdzielczość drugiego na HD
Odpowiedz
#4
(08-04-2016, 22:56)koks napisał(a):  Zmień rozdzielczość drugiego na HD

Hmmmm, rozdzielczość. Pierwszego to Full HD a drugi to 4K.
Jutro spróbuje tak jak piszesz.

Mogła mi różnica w rozdzielczości umknąć...
Rokuje na rozwiązanie problemu.
[Obrazek: n13.gif]
Odpowiedz



   


Skocz do:


Użytkownicy przeglądający ten wątek: 1 gości