Płyta DVD kuleje
#1
Witam
Mam problem z odtwarzaniem płyty DVD, sprawdzone na dwóch odtwarzaczach.

Otóż robię film z panasonica gh4 i gh3 , materiał wejściowy to MOV 1920-1080 50p
Render do DVD Architecta :
VBR
9 000 000
6 000 000 
          192
Dolne pole pierwsze
 
Dźwięk ac3.

Robie menu i wypalam płytę.
Po włożeniu do odtwarzacza, owszem idzie . ale jak chcemy przewinąć w przód lub w tył to obraz znika i sam dźwięk i wtedy kaplica ....
Pomocy , o co chodzi ??
Jak robiłem na takich ustawieniach z kamer avchd 50i to wszystko działało .....
Odpowiedz
#2
testowałeś na innej płycie? Innym odtwarzaczu?
Wydaje mi się, że nie należy szukać problemu w Vegasie. Skoro do momentu jak nie przewijasz, nie ma problemu, wina leży po stronie płyty/odtwarzacza.
Jaką prędkością nagrywałeś?
Odpowiedz
#3
(01-30-2015, 22:37)mateuszszar napisał(a):  testowałeś na innej płycie? Innym odtwarzaczu?
Wydaje mi się, że nie należy szukać problemu w Vegasie. Skoro do momentu jak nie przewijasz, nie ma problemu, wina leży po stronie płyty/odtwarzacza.
Jaką prędkością nagrywałeś?

Prędkość 8x , sprawdzałem teraz na 3 odtwarzaczu, film który wczoraj nagrywałem na płytę działą, ale materiał był z kamery a dziś pierwszy film z aparatów i klops
Odpowiedz
#4
materiał raczej nie ma wpływu.
Nawet jakbyś niepoprawnie renderował, to podczas authoringu program by przekodował na poprawne pliki (co prawda wówczas tracisz na jakości, bo kolejny raz materiał jest przekodowywany)... ale płyta będzie zgodna.

Może kiepskie płyty DVD?
Odpowiedz
#5
cały czas z jednej hurtowni płyty tylko verbatimy i tdk , otwarty cake . Ostatnio też miałem taki problem i max birate było na 9 500 000 jak zmniejszyłem na 9 000 000 to problem zniknął. Znowu mam zmniejszać ??
Odpowiedz
#6
To by świadczyło o problemie z Twoim odtwarzaczem.
Maksymalny bitrate całkowity dla płyty DVD wynosi 9.8Mbps. Nawet jak masz max ac3, to nie przekraczasz... ale może właśnie Twój odtwarzacz nie może się pozbierać z taką ilością danych?
płyty Verbatim oraz TDK to najlepszy nośnik.
a może jednak przekraczasz 9.8Mbps?
Jaki masz bitrate dla audio? ;)
Odpowiedz
#7
Mam 3 w domu i na każdym ?? Bluray LG , DVD LG , DVD SONY . Na każdym się wywala. Wczorajsze płyty chodzą bez problemu, z takimi samymi ustawieniami. Dzisiejsze różnią się tylko tym że są z aparatów .... Rozkładam ręce , macie jakies pomysłu jeszcze ??
Odpowiedz
#8
Dzwięk:

General
Complete name : E:\zuzol\Zuza DVD.ac3
Format : AC-3
Format/Info : Audio Coding 3
File size : 27.8 MiB
Duration : 20mn 13s
Overall bit rate mode : Constant
Overall bit rate : 192 Kbps

Audio
Format : AC-3
Format/Info : Audio Coding 3
Mode extension : CM (complete main)
Format settings, Endianness : Big
Duration : 20mn 13s
Bit rate mode : Constant
Bit rate : 192 Kbps
Channel(s) : 2 channels
Channel positions : Front: L R
Sampling rate : 48.0 KHz
Bit depth : 16 bits
Compression mode : Lossy
Stream size : 27.8 MiB (100%)



Obraz:
General
Complete name : E:\zuzol\Zuza DVD.mpg
Format : MPEG-PS
File size : 885 MiB
Duration : 20mn 13s
Overall bit rate mode : Variable
Overall bit rate : 6 117 Kbps

Video
ID : 224 (0xE0)
Format : MPEG Video
Format version : Version 2
Format profile : Main@Main
Format settings, BVOP : Yes
Format settings, Matrix : Default
Format settings, GOP : Variable
Format settings, picture st : Frame
Duration : 20mn 13s
Bit rate mode : Variable
Bit rate : 5 995 Kbps
Maximum bit rate : 9 000 Kbps
Width : 720 pixels
Height : 576 pixels
Display aspect ratio : 16:9
Frame rate : 25.000 fps
Standard : PAL
Color space : YUV
Chroma subsampling : 4:2:0
Bit depth : 8 bits
Scan type : Interlaced
Scan order : Bottom Field First
Compression mode : Lossy
Bits/(Pixel*Frame) : 0.578
Time code of first frame : 00:00:00:00
Time code source : Group of pictures header
GOP, Open/Closed : Open
Stream size : 867 MiB (98%)
GOP, Open/Closed of first f : Closed

Menu
Odpowiedz
#9
zapas jest...
Odpowiedz
#10
Zawsze staram się zrobić "bezpieczną" płytę żeby wszędzie chodziła. Nie wiem o co chodzi ...
Odpowiedz



   


Podobne wątki
Wątek: Autor Odpowiedzi: Wyświetleń: Ostatni post
  Płyta wyłącza się po wyrenderowaniu Robak081 2 605 09-15-2013, 16:13
Ostatni post: Robak081

Skocz do:


Użytkownicy przeglądający ten wątek: 1 gości