Brak oddtwarzania filmów o wysokiej rozdzielczości
#1
Witam
Mam problem, nie wyświetla mi się ścieżka video (nie jest zmutowana) przeszukałem już trochę internetu i nie mogę znaleźć odpowiedzi. Wygląda to tak że, przy nagrywaniu w gorszej jakości 480 pix filmy widać natomiast przy rozdzielczości HD cały czas mam zielony podgląd i leci sam dźwięk (format mp4). Chodzi tutaj o nagrania z pulpitu nagrywałem dwoma programami xsplit i shadow play nvidia w obu niska jakość się wyświetla a ta wyższa jest cała zielona.

Co robiłem?
-KOdeki K lite pack zainstalowałem
- Sprawdziłem czy nie mam zmutowanej ścieżki video
- Filmy odtwarzają się normalnie tylko nie w sony vegasie.

Jeżeli potrzebujecie jakiś innych informacji by rozwiązać problem proszę piszcie.
Z góry dzięki.

Pozdrawiam
Odpowiedz
#2
(09-23-2014, 11:41)Seromek napisał(a):  (...)Jeżeli potrzebujecie jakiś innych informacji by rozwiązać problem proszę piszcie.

Nie. Wystarczą nam tylko te o których mowa w regulaminie (a których nie podałeś).
Odpowiedz
#3
Vegas 13
Win 7

Chodzi o pliki MP4

szerokość klatek 860x480 działa
szerokość klatek 1366x768 sony vegas pokazuje cały czas na zielono dzwięk jest
Odpowiedz
#4
czyli grochem o ścianę... dobrze więc. Może jakiś wróżbita się znajdzie na forum i pomoże...
Odpowiedz
#5
Co potrzebujesz wiedzieć ?
Nie rozumiem waszego podejścia jakbym się znał na tym programie nie przychodził bym to po pomoc.
Do działu podpięty jest temat że te informacje przy problemie technicznym są potrzebne te informacje nie ma mowy o innych.
Odpowiedz
#6
to są Twoim zdaniem wszystkie informacje (build programu, parametry wideo (kodek), wersja windowsa - 64/32bitowy...)
Za każdym razem to samo.

Dla przypomnienia - parametry wideo odczytujemy za pomocą programu MediaInfo (żeby wyraźnie był napisany kodek).
Odpowiedz
#7
to są Twoim zdaniem wszystkie informacje (build programu, parametry wideo (kodek), wersja windowsa - 64/32bitowy...)
Za każdym razem to samo.

Dla przypomnienia - parametry wideo odczytujemy za pomocą programu MediaInfo (żeby wyraźnie był napisany kodek).

Dodatkowo przydałoby się wiedzieć, jak u Ciebie z GPU (czy włączona akceleracja w programie, czy masz najnowsze sterowniki itd.).
Odpowiedz
#8
Windows 7 home premium 64 bit
Sony vegas 13.0.310

Ten plik nie działa nie wyświetla się tylko zielone tło i dzwięk.

ID : 1
Format : AVC
Format/Info : Advanced Video Codec
Format profile : High@L4.2
Format settings, CABAC : Yes
Format settings, ReFrames : 1 frame
Format settings, GOP : M=1, N=30
Codec ID : avc1
Codec ID/Info : Advanced Video Coding
Duration : 30mn 37s
Source duration : 30mn 37s
Bit rate : 12.2 Mbps
Width : 1 366 pixels
Height : 768 pixels
Display aspect ratio : 16:9
Frame rate mode : Variable
Frame rate : 23.155 fps
Original frame rate : 60.000 fps
Minimum frame rate : 0.001 fps
Maximum frame rate : 81.191 fps
Standard : PAL
Color space : YUV
Chroma subsampling : 4:2:0
Bit depth : 8 bits
Scan type : Progressive
Bits/(Pixel*Frame) : 0.504
Stream size : 2.62 GiB (100%)
Source stream size : 2.62 GiB (100%)
Color primaries : BT.601 NTSC
Transfer characteristics : BT.470 System M
Matrix coefficients : BT.601
mdhd_Duration : 119367


Ten plik działa w 100%

ID : 1
Format : AVC
Format/Info : Advanced Video Codec
Format profile : High@L3.1
Format settings, CABAC : Yes
Format settings, ReFrames : 4 frames
Codec ID : avc1
Codec ID/Info : Advanced Video Coding
Duration : 37mn 30s
Bit rate : 1 357 Kbps
Width : 854 pixels
Height : 480 pixels
Display aspect ratio : 16:9
Frame rate mode : Variable
Frame rate : 29.928 fps
Minimum frame rate : 0.682 fps
Maximum frame rate : 30.000 fps
Color space : YUV
Chroma subsampling : 4:2:0
Bit depth : 8 bits
Scan type : Progressive
Bits/(Pixel*Frame) : 0.111
Stream size : 364 MiB (93%)
Writing library : x264 core 139 r2363 2ccee72
Encoding settings : cabac=1 / ref=1 / deblock=1:0:0 /
Odpowiedz
#9
Obawiam się, że bez przekodowania się nie obejdzie.
Był już podobny przypadek na forum, ale nie mogę teraz odnaleźć.
Zielone okno, to chyba błąd kodeka (a AVC jest w Vegasie natywne, więc nic nie da zainstalowanie kodek-paczki...).
Możesz przekodować innym programem do czegoś co jest bliżej standardów... i spróbuj na Vegasie 11 (z tego co pamiętam, VP12 oraz VP13 ma problem z tymi AVC od nVidii)... a VP11 to czytał.
Odpowiedz
#10
Może jeszcze spróbuj przemuxować (program tsMuxer). Albo wyciągnąć osobne strumienie (demux), albo przemuxować do M2TS.
Odpowiedz



   


Podobne wątki
Wątek: Autor Odpowiedzi: Wyświetleń: Ostatni post
  Przybliżanie zdjęć wysokiej rozdzielczości. nozownik0 5 2,805 09-29-2010, 20:23
Ostatni post: efix

Skocz do:


Użytkownicy przeglądający ten wątek: 1 gości