Problem-opcja „Stretch to fill output frame size" nie działa
#1
Witam

Jeżeli temat jest w złym dziale,proszę o przeniesienie

Mam problem.

otóż,gdy renderuję film w formacie 4:3/5:4 (czy to z kaszetą,czy bez),po zaznaczeniu opcji „Stretch to fill output frame size" i wyrenderowaniu,obraz jest z czarnymi pasami po bokach.Nie wiem co się dzieje,wcześniej ta opcja działała i film po renderowaniu wyświetlał się na cały ekran.Dodam jeszcze,że ustawiłem odpowiedni PAR, tj.:1,0926-Pal dv.

Jak coś daje dane z mediainfo:

Surowy plik (przegrany poprzez firewire):

Kod:
General
Complete name                            : C:\Users\user\Videos\firewire nagrania\6\6-rozdział 1-firewire.wmv
Format                                   : Windows Media
File size                                : 202 MiB
Duration                                 : 13mn 36s
Overall bit rate mode                    : Constant
Overall bit rate                         : 2 070 Kbps
Maximum Overall bit rate                 : 2 079 Kbps
Encoded date                             : UTC 2014-04-14 14:04:11.984

Video
ID                                       : 2
Format                                   : VC-1
Format profile                           : MP@ML
Codec ID                                 : WMV3
Codec ID/Info                            : Windows Media Video 9
Codec ID/Hint                            : WMV3
Description of the codec                 : Windows Media Video 9 - Professional
Duration                                 : 13mn 36s
Bit rate mode                            : Constant
Bit rate                                 : 1 900 Kbps
Width                                    : 720 pixels
Height                                   : 576 pixels
Display aspect ratio                     : 5:4
Frame rate                               : 25.000 fps
Standard                                 : PAL
Color space                              : YUV
Chroma subsampling                       : 4:2:0
Bit depth                                : 8 bits
Scan type                                : Progressive
Compression mode                         : Lossy
Bits/(Pixel*Frame)                       : 0.183
Stream size                              : 185 MiB (92%)
Language                                 : Polish

Audio
ID                                       : 1
Format                                   : WMA
Format version                           : Version 2
Codec ID                                 : 161
Codec ID/Info                            : Windows Media Audio
Description of the codec                 : Windows Media Audio 9 - 160 kbps, 44 kHz, stereo (A/V) 1-pass CBR
Duration                                 : 13mn 36s
Bit rate mode                            : Constant
Bit rate                                 : 160 Kbps
Channel(s)                               : 2 channels
Sampling rate                            : 44.1 KHz
Bit depth                                : 16 bits
Stream size                              : 15.6 MiB (8%)
Language                                 : Polish

Plik po obróbce (wyrenderowany):

Kod:
General
Complete name                            : C:\Users\user\Videos\6-Wersja finalna.wmv
Format                                   : Windows Media
File size                                : 294 MiB
Duration                                 : 22mn 19s
Overall bit rate mode                    : Constant
Overall bit rate                         : 1 840 Kbps
Maximum Overall bit rate                 : 2 117 Kbps
Encoded date                             : UTC 2014-06-03 12:55:52.239
SfOriginalFPS                            : 250000

Video
ID                                       : 2
Format                                   : VC-1
Format profile                           : MP@ML
Codec ID                                 : WMV3
Codec ID/Info                            : Windows Media Video 9
Codec ID/Hint                            : WMV3
Description of the codec                 : Windows Media Video 9 - Professional
Duration                                 : 22mn 19s
Bit rate mode                            : Constant
Bit rate                                 : 1 969 Kbps
Width                                    : 720 pixels
Height                                   : 576 pixels
Display aspect ratio                     : 5:4
Frame rate                               : 25.000 fps
Standard                                 : PAL
Color space                              : YUV
Chroma subsampling                       : 4:2:0
Bit depth                                : 8 bits
Scan type                                : Progressive
Compression mode                         : Lossy
Bits/(Pixel*Frame)                       : 0.190
Stream size                              : 314 MiB
Language                                 : Polish

Audio
ID                                       : 1
Format                                   : WMA
Format profile                           : Pro
Codec ID                                 : 162
Codec ID/Info                            : Windows Media Audio
Description of the codec                 : Windows Media Audio 10 Professional - 128 kbps, 48 kHz, 5.1 channel 16 bit (A/V) 1-pass CBR
Duration                                 : 22mn 19s
Bit rate mode                            : Constant
Bit rate                                 : 128 Kbps
Channel(s)                               : 6 channels
Sampling rate                            : 48.0 KHz
Bit depth                                : 16 bits
Stream size                              : 20.4 MiB (7%)
Language                                 : Polish


A tutaj daję kilka screenshotów

Tak film wygląda w Vegasie
[Obrazek: 45124826783723108250.jpeg]

Ustawienia Projektu
[Obrazek: 60659128879570648447.jpg]

Tak wygląda film po wyrenderowaniu,opcja „Stretch to fill output frame size" zaptaszkowana:
[Obrazek: 60861031886557737360.jpeg]


Kilka tygodni wcześniej wyrenderowałem wersję „BETA" filmu(film bez muzyki,efektów itp.)i wyglądało to tak:
[Obrazek: 52790579394671035140.jpeg]
Odpowiedz
#2
Spróbuj w project properties odznaczyć "adjust source media..."

Ps. Piszę z telefonu dlatego tak ogólnie. Jak zasiądę przed komputerem postaram się zerknąć dokładniej. Chyba że ktoś będzie szybszy...
Odpowiedz
#3
Ale co ty piszesz za rzeczy? To co pokazujesz na obrazku, to nie jest film w formacie 4:3 tylko 16:9. Wygląda prawidłowo. Przepisz poprawnie wszystkie parametry plików do renderu finalnego i powinno działać.
Odpowiedz
#4
(06-20-2014, 1:51)Bunch napisał(a):  Ale co ty piszesz za rzeczy? To co pokazujesz na obrazku, to nie jest film w formacie 4:3 tylko 16:9. Wygląda prawidłowo. Przepisz poprawnie wszystkie parametry plików do renderu finalnego i powinno działać.

ale ten film jest w 4:3,tylko z dodanymi kaszetami u góry i dołu.dodaję je,aby zakryć rzeczy,które nie powinny się znaleźć w kadrze.

a film oryginalnie wygląda tak
[Obrazek: 05401665620039642114.jpeg]
Odpowiedz
#5
Pomoże mi ktoś?Bo już nie wiem,co zrobić :(
Odpowiedz
#6
Przede wszystkim odznacz "Stretch to fill output frame size" oraz ustaw projekt tak, jak masz zamiar renderować - wówczas zobaczysz, czy Ci coś obcina, dokleja kaszety itd.
Jeśli będzie OK, to renderuj. Nie ma bata, żeby się coś przesunęło.
Odpowiedz
#7
tyle że ja mam np.projekt 4:3 i chcę wyrenderować w taki sposób ,aby było na cały ekran wyświetlane,a ta opcja chyba właśnie do tego służy,tyle że nie działa i renderuje mi w taki sposób,że zamiast kaszet tylko u góry i u dołu (czyli tych które dodałem) są jeszcze po bokach.I nie wiem,w jaki sposób ich się pozbyć.
Odpowiedz
#8
Więc ustaw prorekt tak jak będziesz renderował i ręcznie dopasuj w pan/crop aby poprawnie wyświetlał.
Odpowiedz



   


Podobne wątki
Wątek: Autor Odpowiedzi: Wyświetleń: Ostatni post
  Main Concept AVC/ACC nie działa + nieaktywna opcja include audio jojok21 2 250 04-09-2016, 22:48
Ostatni post: jojok21
  327 MB input - wagon GB output Przychodzień 5 939 03-11-2013, 21:20
Ostatni post: mateuszszar
  Jak uratować half size HD? arth 2 964 04-05-2011, 17:56
Ostatni post: kaytek
  Problem z opcją ''Mask"/ Okno Video Event - Pan Crop Saneria 10 2,956 09-24-2010, 16:13
Ostatni post: Saneria
  problem z opcją edit generated media , znika Michal193 1 1,185 09-19-2010, 23:08
Ostatni post: tidzu

Skocz do:


Użytkownicy przeglądający ten wątek: 1 gości