Problem z dźwiękiem
#1
Witam,
przeszukałam poruszane tutaj tematy i nigdzie nie znalazłam rozwiązania, więc piszę (jeśli jednak coś przeoczyłam, to z góry przepraszam).
Otóż mam problem z dźwiękiem. Gdy wrzucam jakiś film do Vegasa, ten pokazuje mi tylko obraz, a ścieżki dźwiękowej nawet nie wczytuje. Wcześniej nie chciał mi nawet włączać obrazów, doszłam do tego, że to wina codeka i takowy zainstalowało. Cieszyłam się tylko przez chwilę gdy byłam w stanie włączyć film, bo szybko zdałam sobie sprawę, że nie ma dźwięku. Nasuwa mi się więc pytanie, czy brak dźwięku może też być winą codeca?

System operacyjny: Windows 8
Program: Sony Vegas 11 Pro

Dane dotyczące filmu:
Cytat:Video
ID : 0
Format : AVC
Format/Info : Advanced Video Codec
Format profile : High@L3.1
Format settings, CABAC : Yes
Format settings, ReFrames : 4 frames
Codec ID : H264
Duration : 42mn 25s
Bit rate : 4 570 Kbps
Width : 1 280 pixels
Height : 720 pixels
Display aspect ratio : 16:9
Frame rate mode : Variable
Frame rate : 23.976 fps
Color space : YUV
Chroma subsampling : 4:2:0
Bit depth : 8 bits
Scan type : Progressive
Bits/(Pixel*Frame) : 0.207
Stream size : 1.36 GiB (93%)

Audio
ID : 1
Format : MPEG Audio
Format version : Version 1
Format profile : Layer 3
Mode : Joint stereo
Mode extension : MS Stereo
Codec ID : 55
Codec ID/Hint : MP3
Duration : 42mn 25s
Bit rate mode : Constant
Bit rate : 320 Kbps
Channel(s) : 2 channels
Sampling rate : 48.0 KHz
Compression mode : Lossy
Stream size : 97.1 MiB (7%)
Alignment : Aligned on interleaves
Interleave, duration : 24 ms (0.58 video frame)
Title : DD5.1 @ 384kbps
Writing library : LAME3.99.5

Z góry dziękuję dla tego, kto będzie wiedział jak to naprawić :D
Odpowiedz
#2
Owszem. Jak najbardziej. Musisz mieć odpowiedni kodek do danego zakodowanego pliku (kodek oczywiście w pełnej wersji, zgodnej z systemem oraz wersją Vegasa - dla 64bitowego systemu i programu - 64bitowy kodek).
Odpowiedz
#3
Wiesz może który byłby odpowiednim? Bo nie chcę ściągać czegoś, co może nie być rozwiązaniem, a że ja nie za bardzo się na tym znam, to byłabym naprawdę wdzięczna za jakieś nakierowanie :D
Odpowiedz



   


Podobne wątki
Wątek: Autor Odpowiedzi: Wyświetleń: Ostatni post
  Problem z dźwiękiem przy renderowaniu Filozof94 3 1,105 02-27-2015, 13:48
Ostatni post: mateuszszar
  Problem z dzwiękiem ryszerd 0 405 09-21-2014, 12:59
Ostatni post: ryszerd
  Problem z dźwiękiem memento 1 609 05-12-2014, 12:16
Ostatni post: efix
  Problem z Dzwiekiem ;/ realmadrid 0 487 02-16-2014, 23:49
Ostatni post: realmadrid
  Problem z dźwiękiem po zrenderowaniu michael197 2 830 01-03-2014, 15:37
Ostatni post: michael197
  Problem z dźwiękiem AVI aQuel 1 656 12-21-2013, 13:20
Ostatni post: mateuszszar

Skocz do:


Użytkownicy przeglądający ten wątek: 1 gości