Problem po zrederowaniu skaczący (?) obraz
#1
Czy wie ktoś w jaki sposób mógłbym sobie poradzić z tym problemem? W podglądzie film jest w porządku, ale po zrenderowaniu wychodzi coś takiego:



Co ciekawe sposób w jaki obraz robi... to coś... jest zależny od formatu wyjściowego. Inaczej to wygląda przy .avi, .mp4, itd.

Pracuję na SV 11, a tutaj specyfikacja. Nie wiem dokładnie czy to jest to czego wymagacie w "Zanim napiszesz", więc jak coś to jestem w stanie dostarczyć.

[Obrazek: 7f66229f.jpg]

Z góry dziękuję za pomoc!
Odpowiedz
#2
Nie napisałeś wymaganych danych...

Jaki jest wsad?
Skąd pomysł na przełączanie projektu do 32-bitów?
Audio 24bity?
Przeplot?

i po co ten foch? :)
Odpowiedz
#3
Szczerze mówiąc, świerzbiła mnie ręką, by po tekście "pełna profeska" kolesia wyp... na zbity pysk i zbanować na wszelkie możliwe sposoby. Nosz kuźwa szczyty.

Maciej Lewandowski - efix.pl
Odpowiedz
#4
efis - ale przynajmniej pomogło, ktoś się odezwał :)

mateuszszar - wsad to znaczy format wejsciowy plików? głownie .mp4 i .mod. co to bitów, jestem laikiem, nei znam się. do tej pory działało.
Odpowiedz
#5
to nie wpis "pełna profeska" mnie zmotywował... szczerze, to jak zobaczyłem Twój drugi wpis, miałem zamiar już nie odpisywać...

Tak. Wsad, to inaczej - materiał wejściowy. Parametry odczytujemy za pomocą programu MediaInfo:

Cytat:General
ID : 0 (0x0)
Complete name : R:\Camcorder\2013-12-07\20131207172401.m2ts
Format : BDAV
Format/Info : Blu-ray Video
File size : 93.5 MiB
Duration : 32s 785ms
Overall bit rate mode : Variable
Overall bit rate : 23.9 Mbps
Maximum Overall bit rate : 24.0 Mbps

Video
ID : 4113 (0x1011)
Menu ID : 1 (0x1)
Format : AVC
Format/Info : Advanced Video Codec
Format profile : High@L4.0
Format settings, CABAC : Yes
Format settings, ReFrames : 2 frames
Codec ID : 27
Duration : 32s 680ms
Bit rate mode : Variable
Bit rate : 21.4 Mbps
Maximum bit rate : 22.0 Mbps
Width : 1 920 pixels
Height : 1 080 pixels
Display aspect ratio : 16:9
Frame rate : 25.000 fps
Color space : YUV
Chroma subsampling : 4:2:0
Bit depth : 8 bits
Scan type : Progressive
Bits/(Pixel*Frame) : 0.413
Stream size : 83.3 MiB (89%)

Audio
ID : 4352 (0x1100)
Menu ID : 1 (0x1)
Format : PCM
Format settings, Endianness : Big
Format settings, Sign : Signed
Muxing mode : Blu-ray
Codec ID : 128
Duration : 32s 755ms
Bit rate mode : Constant
Bit rate : 1 536 Kbps
Channel count : 2 channels
Channel positions : Front: L R
Sampling rate : 48.0 KHz
Bit depth : 16 bits
Delay relative to video : -80ms
Stream size : 6.00 MiB (6%)


W ten sposób widzimy, jaki jest użyty kodek, oraz szczegółowe parametry.

Jeśli chodzi o bity, to trzeba było nie ruszać. Jak nie ingerujesz znacząco w kolor, to zostaw 8bitów.
Odpowiedz
#6
Usunąłem tamtego posta i przepraszam :)

I tym programem mam przeanalizować zrenderowany filmik?
Odpowiedz
#7
Po co analizować zrenderowany?
Analizujesz wsad, aby wiedzieć jak ustawić projekt.
W Twoim przypadku problem powstawało w 90% ustawienie 32bitów.

Jeśli masz materiał z np. dwóch kamer (skoro .mp4, oraz .mod), to odczytaj parametry zarówno dla .mp4 jak i dla .mod.

Jeśli materiał jest identyczny (ta sama rozdzielczość, klatkaż, przeplot), to nie ma problemu. Gorzej, jak są różne materiały (trzeba wówczas znaleźć optymalne ustawienia).
Odpowiedz
#8
O Panie. Tam jest na oko z 30 sklejonych filmików ;/
Odpowiedz
#9
Nie ważne ile. Wszystkie z jednej kamery (dwóch)? Czy może 30 totalnie różnych klipów z różnych źródeł?
To jest istotne.

Jeśli masz wszystko z jednej kamery, albo z dwóch, to nie ważne, czy masz tych klipów 30, czy 30 000.

A... i jeszcze jedno. Po przestawieniu na 8 bitów (obraz) - przestało skakać?
Jeszcze audio ustaw normalnie - czyli 48kHz, 16bitów (nie 24!)
Odpowiedz
#10
No nie wiem czy ściągnięcie z YT można liczyć jako jedno źródło. Jeżeli tak, to mam 2 źródła. Jeżeli nie, to jest tam (szybko policzyłem) 15 źródeł.

Nie przestało.
Odpowiedz



   


Podobne wątki
Wątek: Autor Odpowiedzi: Wyświetleń: Ostatni post
  "skaczący" obraz w rytm muzyki Brajanovskyy 1 360 02-01-2016, 18:15
Ostatni post: szczemp

Skocz do:


Użytkownicy przeglądający ten wątek: 1 gości