Podczas renderowania cenzura się wyostrza.
#1
Witam, mój problem polega na tym, że kiedy skończę zamazywać twarze w filmie i zapisuję w jakimkolwiek formacie to mi te zamazane miejsca się wyostrzają tak, że można rozpoznać twarz osoby. Myślę, że mój problem jest gdzieś w renderingu, ale nie wiem jak go rozwiązać.

Sony Vegas 9 Pro

Właściwości filmu:
Kod:
Documents\Downloads\2013-03-11 19.56.20.mp4
Format                         : MPEG-4
Format profile                 : Base Media
Codec ID                       : isom
File size                      : 52.3 MiB
Duration                       : 31s 765ms
Overall bit rate               : 13.8 Mbps
Encoded date                   : UTC 2013-03-11 18:56:20
Tagged date                    : UTC 2013-03-11 18:56:20

Video
ID                             : 1
Format                         : AVC
Format/Info                    : Advanced Video Codec
Format profile                 : High@L4.0
Format settings, CABAC         : Yes
Format settings, ReFrames      : 1 frame
Codec ID                       : avc1
Codec ID/Info                  : Advanced Video Coding
Duration                       : 31s 545ms
Source duration                : 31s 568ms
Bit rate                       : 13.8 Mbps
Width                          : 1 920 pixels
Height                         : 1 080 pixels
Display aspect ratio           : 16:9
Frame rate mode                : Variable
Frame rate                     : 24.296 fps
Minimum frame rate             : 10.635 fps
Maximum frame rate             : 30.090 fps
Color space                    : YUV
Chroma subsampling             : 4:2:0
Bit depth                      : 8 bits
Scan type                      : Progressive
Bits/(Pixel*Frame)             : 0.273
Stream size                    : 51.8 MiB (99%)
Source stream size             : 51.8 MiB (99%)
Title                          : VideoHandle
Language                       : English
Encoded date                   : UTC 2013-03-11 18:56:20
Tagged date                    : UTC 2013-03-11 18:56:20
mdhd_Duration                  : 31545

Audio
ID                             : 2
Format                         : AAC
Format/Info                    : Advanced Audio Codec
Format profile                 : LC
Codec ID                       : 40
Duration                       : 31s 765ms
Bit rate mode                  : Constant
Bit rate                       : 128 Kbps
Channel count                  : 2 channels
Channel positions              : Front: L R
Sampling rate                  : 48.0 KHz
Compression mode               : Lossy
Stream size                    : 494 KiB (1%)
Title                          : SoundHandle
Language                       : English
Encoded date                   : UTC 2013-03-11 18:56:20
Tagged date                    : UTC 2013-03-11 18:56:20
Odpowiedz
#2
Też jestem ciekaw, jakie jest rozwiązanie. Montowałem kiedyś film, na którym zamazywałem tablicę rejestracyjną. Obojętnie jak nie ustawiałem rozmycia, to przy ściemnianiu - kończącym ujęcie - tablica pokazywała się wyraźnie.
Odpowiedz
#3
A możecie pokazać, jak robicie tę "cenzurę"?
Może być plik *.veg (projekt) albo zrzuty ekranu z timeline oraz poszczególnych ustawień efektów, pan/cropa itd...
Odpowiedz
#4
Mateusz, dopiero w poniedziałek będę mógł to zrobić.
Odpowiedz
#5
Też miałem kilka razy problem z cenzurą, to przez to, że jeśli na podglądzie ustawimy inną jakość, niż ta do której renderujemy, to razem z jakością obrazu zwiększa się tam natężenie efektów np. takich jak rozmycie czy pikselizacja. Jeśli chcemy zobaczyć realnie jak wygląda cenzura, trzeba na chwilę zmienić jakość podglądu na najlepszą, i wtedy ustawić zagęszczenie rozmycia.

Jeśli zaś cenzura psuje się przy przejściu, np. ściemnianiu obrazu, to nie można używać zwykłego przejścia, trzeba zrobić te w trochę inny sposób, na przykład tak:
[Obrazek: 52a8dffa7ad7a.png]
Odpowiedz
#6
Mateusz mi już wyjaśnił co i jak. Ponieważ może to się przydać innym, to zacytuję:
"Tak jak przypuszczałem, "fade" (ściemnienie) jest zrobione na dwóch trackach/eventach. Na górze - z nałożonym rozmyciem, na dole - oryginał.
Jak wiadomo, ściemnienie działa w ten sposób, że robi dany event - przezroczystym - stąd cenzura zanika.

Jeśli więc chcesz zrobić ściemnienie, to musisz dodać na wyższym tracku solid color (black) i ustawić jak w załączniku.
Można również użyć krzywej "fade to color", ale szybciej chyba będzie z tym "solid color".
Załączyłem przykład - jak to najszybciej zrobić.

https://skydrive.live.com/redir?resid=FF...der%2c.jpg


Można jeszcze inaczej - jak zrobisz cenzurę, to zapisujesz to jako *.veg - i ten plik .veg przeciągasz do nowego Vegasa na oś czasu. plik veg będzie traktowany jak film z już nałożoną cenzurą - więc będziesz mógł normalnie zrobić zaciemnienie (fade).
A jak będziesz chciał poprawić cenzurę - to możesz ponownie edytować tamten plik .veg
Odpowiedz
#7
Przecież praktycznie to samo mu wyjaśniłem.
Odpowiedz
#8
Nikt nie napisał - że nie...
Tylko że ja pisałem mailem - bo tak dostałem zapytanie wraz z projektem. To, że tutaj nie uzupełniliśmy - to tylko niedopatrzenie... Tak czy inaczej - sprawa rozwiązana.
Odpowiedz



   


Podobne wątki
Wątek: Autor Odpowiedzi: Wyświetleń: Ostatni post
  Wyłączenie okna podglądu podczas renderowania lukcio28 3 133 10-29-2016, 20:41
Ostatni post: sirCreeper
  Problem podczas renderowania Badalabandalad 0 578 06-23-2014, 23:44
Ostatni post: Badalabandalad
  Długie zacinki podczas renderowania rlz 3 919 10-14-2013, 23:10
Ostatni post: mateuszszar
  Komputer wyłącza się podczas renderowania bart13 4 1,791 08-23-2013, 14:31
Ostatni post: neolatowicz
  Cenzura na wielu klipach. Hekto14 9 1,922 05-10-2012, 22:50
Ostatni post: mateuszszar
  Sony vegas podczas renderowania zawiesza komputer Diksur 2 1,910 02-07-2012, 20:18
Ostatni post: groh

Skocz do:


Użytkownicy przeglądający ten wątek: 1 gości