Rendering w HD - jakie parametry są najlepsze dla mts?
#1
Witam, mam do was wielką prośbę i pytanie.

Otóż renderowałem swoje filmy do Sony AVC MS SD widescreen 6256 Kbps i zawsze było dobrze, szybko i ładnie. Ale to były filmy z samymi obrazkami, często głupie które robiłem i poprawiałem humor kolegom.

Ostatnio kupiłem kamerę JVC GZ-EX315, mała zgrabna fajna kamerka która nagrywa do formatu .MTS Interlaced 25fps (1920x1080). MediaInfo z losowego pliku nagranego tą kamerą:
Kod:
General
ID                                       : 0 (0x0)
Complete name                            : H:\PRIVATE\AVCHD\BDMV\STREAM\00004.MTS
Format                                   : BDAV
Format/Info                              : Blu-ray Video
File size                                : 43.0 MiB
Duration                                 : 29s 685ms
Overall bit rate mode                    : Variable
Overall bit rate                         : 12.1 Mbps
Maximum Overall bit rate                 : 18.0 Mbps

Video
ID                                       : 4113 (0x1011)
Menu ID                                  : 1 (0x1)
Format                                   : AVC
Format/Info                              : Advanced Video Codec
Format profile                           : High@L4.0
Format settings, CABAC                   : Yes
Format settings, ReFrames                : 2 frames
Format settings, GOP                     : M=3, N=12
Codec ID                                 : 27
Duration                                 : 29s 680ms
Bit rate mode                            : Variable
Bit rate                                 : 11.4 Mbps
Maximum bit rate                         : 17.0 Mbps
Width                                    : 1 920 pixels
Height                                   : 1 080 pixels
Display aspect ratio                     : 16:9
Frame rate                               : 25.000 fps
Color space                              : YUV
Chroma subsampling                       : 4:2:0
Bit depth                                : 8 bits
Scan type                                : Interlaced
Scan order                               : Top Field First
Bits/(Pixel*Frame)                       : 0.220
Stream size                              : 40.3 MiB (94%)

Audio
ID                                       : 4352 (0x1100)
Menu ID                                  : 1 (0x1)
Format                                   : AC-3
Format/Info                              : Audio Coding 3
Mode extension                           : CM (complete main)
Format settings, Endianness              : Big
Codec ID                                 : 129
Duration                                 : 29s 760ms
Bit rate mode                            : Constant
Bit rate                                 : 256 Kbps
Channel count                            : 2 channels
Channel positions                        : Front: L R
Sampling rate                            : 48.0 KHz
Bit depth                                : 16 bits
Compression mode                         : Lossy
Delay relative to video                  : -80ms
Stream size                              : 930 KiB (2%)

Text
ID                                       : 4608 (0x1200)
Menu ID                                  : 1 (0x1)
Format                                   : PGS
Codec ID                                 : 144
Duration                                 : 29s 295ms
Delay relative to video                  : -80ms

Wszystko ładnie nagrywa (w jakości SP). Wrzucam do Vegasa 10.0, robię co trzeba (montuję) i zaczyna się koszmar - rendering...

Mój poprzedni format (wspomniany Sony AVC) już odpada, ponieważ filmy chcę renderować do HD (1280x720) bez przeplotu. W Sony AVC jest ładnie, ale po wrzuceniu na YouTube jest tragedia...

Wybrałem format XDCAM EX 1280x720 50 klatek ale jest przeplot. Ustawione Progressive przez Vegasa nie usuwa przeplotu przez programy odtwarzające (a może usuwa? powiedzieli mi, że przy Scan Type Progressive pomija usuwanie).

Proszę, doradźcie mi format jaki najlepiej używać do renderowania (dla mnie rendering może trwać godzinę, byle pamiątka z wakacji była ładna i nadawała się do pokazania znajomym). Mam sposób na usunięcie przeplotu (MeGUI + konwersja pliku .mts na .mp4 (co trwa dość długo ale efekt genialny)) ale wierzę, że Vegas również potrafi to zrobić tylko ja nie potrafię wykorzystać jego potencjału.

Pozdrawiam!
Odpowiedz
#2
Przeplot usuniesz w vegasie (można użyć darmowego pluginu yadiff).
Dlaczego masz problem z renderowaniem do sony avc?
W sumie lepszą jakość wyciśniesz z MainConcept AVC (jak to zwykle radzimy przy renderingu do YT).

Kamera pisze w 1080p 50i, więc po usunięciu przeplotu renderuj 1080p - 25p (przepływność 8Mbps) Oczywiście dla MainConcept możesz użyć dwuprzebiegu - czas renderu wzrośnie, ale również i jakość wzrośnie.
Odpowiedz
#3
Jak ustawić MainConcept (widze tam tylko Apple Ipod 640x480 i 320x240)? Wybrać Default Template, wpisać 1280x720 i woila?

Jeżeli dobrze rozumiem, plugin yadiff znajdę zaraz sobie w Googlach do Vegasa i rzuce go na film, i będę mógł wyrenderować do XDCAM bez przeplotu?
Odpowiedz
#4
yadiff znajdziesz na stronie producenta: http://www.yohng.com/software/yadifvegas.html
XDCAM możesz użyć - ale to jest kodek mpeg2 w kontenerze mp4. MainConcept to kodek AVC - nowszy, bardziej wydajny. Przy takiej samej przepływności uzyskasz lepszą jakość. Ja często używam XDCAM jako format montażowy. Rendery całości do jednego pliku (wtedy, jeśli nie użyjesz pluginów/filtrów, to render poleci z użyciem "no-recompress"). A dopiero na koniec koduję do różnych formatów: MainConcept AVC (na YT), Sony AVC (na BluRay). Mpeg2 (na DVD).

Jak czegoś nie masz w template, to stwórz sobie swój szablon - wpisz poprawne właściwości (poszukaj i poczytaj co do czego, żeby nie robić piętnaście razy i gonić ciągle po zakładkach).
Odpowiedz



   


Podobne wątki
Wątek: Autor Odpowiedzi: Wyświetleń: Ostatni post
  GoPRO Hero 2 - jakie ustawienia i dalszy rendering? lukskyy 5 3,642 01-28-2013, 23:02
Ostatni post: lukskyy
  Efekty - najlepsze ukazanie jakości z lustrzanki neru166 7 1,884 08-25-2012, 21:53
Ostatni post: Mateusz

Skocz do:


Użytkownicy przeglądający ten wątek: 1 gości