AVI - Error Open / Dziwna sprawa
#1
Witam,

Posiadam Sony Vegas 11.0 i mój problem polega na tym iż nie mogę edytować plików AVI, tylko myk jest taki, że nagrania z FRAPS w formacie AVI otwiera i edytuję bez problemu, a nagrania z LiteCam w takim samym formacie nie otworzy
[Obrazek: vpx.th.png]
Instalowane były K-Lite_Codec_Pack_820_Full i K-Lite_Codec_Pack_980_Full lecz nie dało to efektu.

Mógłby mi ktoś pomóc ?
Odpowiedz
#2
a możesz łaskawie podać kodek tego AVI, które się nie otwiera?
Jak odczytasz (najlepiej za pomocą MediaInfo), to sprawdź, czy posiadasz pełną wersję tego kodeka (do odtwarzania w WMP wystarczy triall kodeka, a do edytowania jest potrzebna wersja pełna - oczywiście w wersji bitowej systemu i Vegasa).
Odpowiedz
#3
Sony Vegas Pro 11.0 Build 683 64-bit
Cytat:General
Complete name : C:\Users\Pawel\Documents\liteCam\20131014-154626.avi
Format : AVI
Format/Info : Audio Video Interleave
File size : 279 MiB
Duration : 13mn 55s
Overall bit rate : 2 800 Kbps

Video
ID : 0
Format : MPEG-4 Visual
Codec ID : MP43
Codec ID/Info : Microsoft MPEG-4 v3 (pre-standard)
Codec ID/Hint : Microsoft
Duration : 13mn 55s
Bit rate : 1 256 Kbps
Width : 948 pixels
Height : 412 pixels
Display aspect ratio : 2.35:1
Frame rate : 30.000 fps
Compression mode : Lossy
Bits/(Pixel*Frame) : 0.107
Stream size : 125 MiB (45%)

Audio
ID : 1
Format : PCM
Format settings, Endianness : Little
Format settings, Sign : Signed
Codec ID : 1
Duration : 13mn 55s
Bit rate mode : Constant
Bit rate : 1 536 Kbps
Channel(s) : 2 channels
Sampling rate : 48.0 KHz
Bit depth : 16 bits
Stream size : 153 MiB (55%)
Interleave, duration : 1000 ms (29.99 video frames)

Proszę, nigdy się takimi rzeczami nie interesowałem. Wiem, że to jest denerwujące.

Cytat:General
Complete name : D:\Programy\K-Lite_Codec_Pack_820_Full.exe
Format : MZ
Format profile : Executable / Intel i386
File size : 15.9 MiB
Encoded date : UTC 2011-12-20 14:16:50
K-Lite_Codec_Pack_820_Full

Oto chodziło ?
Odpowiedz
#4
Po instalacji
K-Lite_Codec_Pack_980_x64 Dalej nie może otworzyć plików z LiteCam (ten sam błąd)

Mógłbym prosić o pomoc ?
Odpowiedz
#5
W pakiecie K-Lite_Codec_Pack masz chyba również zainstalowane ffdshow. Uruchom "konfiguracja dekodera video ffdshow" i w kodekach włącz MP43.
Odpowiedz
#6
[Obrazek: 222.png]

Po włączeniu okna (chyba odpowiednie) mam taki widok. Na moje oko jest włączone od początku, tak ?
Odpowiedz
#7
Źle. Kodeki VFW są w "konfiguracja kodera video ffdshow". Tam trzeba włączyć.
Odpowiedz
#8
Mógłbyś mi pokazać dokładnie gdzie to jest ? Chodzę po tym całym menu od 2 godzin i trafić nie mogę. (Mam wersję 64x, dlatego po Angielsku)
Odpowiedz
#9
Najlepiej będzie jak zainstalujesz samo ffdshow:
http://ffdshow-tryout.sourceforge.net/download.php
Odpowiedz
#10
Panie dobrodzieju, zainstalowane, i nie pomogło.
Odpowiedz



   


Podobne wątki
Wątek: Autor Odpowiedzi: Wyświetleń: Ostatni post
  Dziwna jakość po renderowaniu. Grappa 1 582 08-30-2013, 9:48
Ostatni post: mateuszszar

Skocz do:


Użytkownicy przeglądający ten wątek: 1 gości