Film po renderowaniu widocznie 'tnie'
#1
Witam, mam problem, mianowicie złożyłem 35-minutowy film z materiałów z kamery HD Samsung HMX-T10. Filmiki z tej kamery w formacie mp4 normalnie odtwarzane u mnie na komputerze chodzą bardzo płynnie, bez żadnych zacięć - problem jest jedynie kiedy nie mam ustawionego Haali Media Splitter do odtwarzania filmików, to mam efekt jak po renderowaniu. Przejdźmy do problemu - po renderowaniu film przy szybkich ruchach kamery wyraźnie 'tnie', taki efekt trochę jakby obraz drgał. Nie wiem czy to może być wina słabego komputera czy może jakichś ustawień, użytych kodeków?

Ustawione opcje renderowania w Sony Vegas 11:
Sony AVC custom
video format: avc
rozdzielczość 1920x1080
profile: high
entropy coding CADAC
frame rate: 25,000 (PAL)
field order: None (Progressive scan)
pixel aspect ratio: 1,0000
bit rate (bps): 16 000 000
encode mode: automatic (recommended)

zakładka audio (ale z dźwiękiem nie ma problemu)
AAC, sample ratio 48 000 Hz, bit rate 128 000, Stereo

zakładka system:
mp4 file format

zakładka project:
video rendering quality: best


specyfikacja komputera:
AMD Athlon 64 X2 6000+
Ram DDR2 4x1GB OCZ Special OPS 800MHz
GPU Gigabyte Radeon HD4850 512MB GDDR5
Windows 7 Ultimate 64 Bit

wrzuciłem na youtube filmiki porównawcze przed i po renderowaniu, może akurat na tym przykładzie tego tak nie widać, ale naprawdę oglądając cały film te drgania dają o sobie co chwilę znać.
oryginał:

po renderowaniu:

chociaż nawet po miniaturce widać że z obrazem po renderowaniu jest coś nie tak
Odpowiedz
#2
Aha, same ghosty, a materiał wejściowy jaki masz i jak projekt ustawiłeś.

Maciej Lewandowski - efix.pl
Odpowiedz
#3
Materiał wejściowy czyli podać jego jakieś parametry dokładne?
Tutaj tak na szybko dane z właściwości pliku http://img844.imageshack.us/img844/1429/3gnq.png jeżeli potrzeba jakichś dokładniejszych danych to prosiłbym o nazwę jakiegoś programu, w którym można to odczytać.

Tutaj właściwości projektu w vegas:
http://img713.imageshack.us/img713/4528/00g0.png
Odpowiedz
#4
mediainfo poda dokładniejsze informacje o pliku
Odpowiedz
#5
Wrzucam screena z mediainfo z jednego z wielu filmików źródłowych (które odtwarzają się idealnie), inne różnią się tylko długością i rzecz jasna rozmiarem.
http://img842.imageshack.us/img842/3403/0ssb.png
Odpowiedz
#6
W tym przypadku nawet to wystarczy.
Ghosty powstały, bo wrzuciłeś materiał 50klatek/sekundę do projektu 25klatek/sekundę, przez co vegas zmiksował dwie klatki materiału źródłowego celem wytworzenia jednej klatki projektu.

Jakbyś poszukał na forum pod hasłem "duchy, ghosty", to byś odnalazł funkcję "disable resample", która w tym przypadku ratuję dupę ;) (i film)

Ps. z media info trochę inny screen podajemy (zobacz na forum). Bo tak, to wiele szczegółów nie pokazałeś.
Odpowiedz
#7
Rzeczywiście okrojone dane wkleiłem, tutaj pełne:

Cytat:ID : 1
Format : AVC
Format/Info : Advanced Video Codec
Format profile : Main@L4.1
Format settings, CABAC : Yes
Format settings, ReFrames : 4 frames
Format settings, GOP : M=3, N=15
Codec ID : avc1
Codec ID/Info : Advanced Video Coding
Duration : 1mn 9s
Bit rate mode : Variable
Bit rate : 17.0 Mbps
Width : 1 920 pixels
Height : 1 080 pixels
Display aspect ratio : 16:9
Frame rate mode : Constant
Frame rate : 50.000 fps
Color space : YUV
Chroma subsampling : 4:2:0
Bit depth : 8 bits
Scan type : Interlaced
Scan order : Top Field First
Bits/(Pixel*Frame) : 0.164
Stream size : 141 MiB (99%)
Title : HMX-T10
Language : English

Audio
ID : 2
Format : AAC
Format/Info : Advanced Audio Codec
Format profile : LC
Codec ID : 40
Duration : 1mn 9s
Bit rate mode : Constant
Bit rate : 128 Kbps
Channel(s) : 2 channels
Channel positions : Front: L R
Sampling rate : 48.0 KHz
Compression mode : Lossy
Stream size : 1.06 MiB (1%)
Title : HMX-T10
Language : English

Czyli na 50 klatek zmienić zarówno w projekcie jak i przy renderowaniu + dodatkowo zastosować na każdym klipie funkcję disable resample?
Dodatkowo z tych danych wywnioskowałem to:
Scan type : Interlaced
Scan order : Top Field First
a obecnie mam ustawione na "none (progressive scan)" to też zmienić na "upper field first"?

Z szukaniem pod podanymi hasłami masz rzeczywiście rację mateuszszar, ale właśnie brakowało mi tych określeń.

Czy muszę jeszcze o czymś wiedzieć przed renderowaniem? Wolę się upewnić bo przy moim komputerze to ponad trzy godziny a to będzie już trzecia próba.
Odpowiedz
#8
Masz 50 z przeplotem? Nie możliwe. Ta kamera pisze 25 z przeplotem (50i) przy rozdzielczości 1080 (widocznie kamera chrzani nagłówek z właściwościami).

Zrób tak. Wejdź w ustawienia projektu i użyj opcji "match media".

Wrzucając do YT i tak dobrze jest usunąć przeplot, dlatego ja bym ustawił projekt 25p (scan type: none - progressive), oraz metoda usuwania przeplotu (deinterlace method: interpolate fields).

Teraz renderuj progresywnie (bez przeplotu - 25p). Nie stosujesz "disable resample". Zrób test na małym fragmencie - wrzuć sobie do YT - ciesz się, że obraz jest bez duchów ;)

dla przykładowego nagrania z kamery (co prawda nie Samsung, ale sony):
Cytat:General
ID : 0 (0x0)
Complete name : P:\Camcorder\2013-07-29 Kasia Finnair\20130725211238.m2ts
Format : BDAV
Format/Info : Blu-ray Video
File size : 1.66 GiB
Duration : 10mn 33s
Overall bit rate mode : Variable
Overall bit rate : 22.5 Mbps
Maximum Overall bit rate : 24.0 Mbps

Video
ID : 4113 (0x1011)
Menu ID : 1 (0x1)
Format : AVC
Format/Info : Advanced Video Codec
Format profile : High@L4.0
Format settings, CABAC : Yes
Format settings, ReFrames : 2 frames
Format settings, GOP : M=2, N=13
Codec ID : 27
Duration : 10mn 33s
Bit rate mode : Variable
Bit rate : 21.3 Mbps
Maximum bit rate : 22.0 Mbps
Width : 1 920 pixels
Height : 1 080 pixels
Display aspect ratio : 16:9
Frame rate : 25.000 fps
Color space : YUV
Chroma subsampling : 4:2:0
Bit depth : 8 bits
Scan type : Interlaced
Scan order : Top Field First
Bits/(Pixel*Frame) : 0.411
Stream size : 1.57 GiB (95%)

Audio
ID : 4352 (0x1100)
Menu ID : 1 (0x1)
Format : AC-3
Format/Info : Audio Coding 3
Mode extension : CM (complete main)
Format settings, Endianness : Big
Codec ID : 129
Duration : 10mn 33s
Bit rate mode : Constant
Bit rate : 256 Kbps
Channel(s) : 2 channels
Channel positions : Front: L R
Sampling rate : 48.0 KHz
Bit depth : 16 bits
Compression mode : Lossy
Delay relative to video : -80ms
Stream size : 19.3 MiB (1%)

Text
ID : 4608 (0x1200)
Menu ID : 1 (0x1)
Format : PGS
Codec ID : 144
Duration : 10mn 32s
Delay relative to video : -80ms
Odpowiedz
#9
Dzięki wielkie - wprowadziłem parametry, które podałeś i zarówno na małym fragmencie jak i po zrenderowaniu całego filmu jest tak jak powinno być.
Odpowiedz



   


Podobne wątki
Wątek: Autor Odpowiedzi: Wyświetleń: Ostatni post
  Film po renderowaniu nie odtwarza za pomocą TV homerson 9 1,363 05-15-2015, 14:27
Ostatni post: mateuszszar

Skocz do:


Użytkownicy przeglądający ten wątek: 1 gości