Pomoc Sony Vegas Pro 9
#1
Jak otwieram film w Sony Vegas to jest tylko ścieżka z dźwiękiem bez obrazu.
Odpowiedz
#2
brak odpowiedniego kodeka.
Odpowiedz
#3
Nadal nie działa zainstalowałem K-Lite Codec Pack 9.8.0 Full i nadal to samo
Odpowiedz
#4
jakim kodekiem jest zakodowane video?
Odpowiedz
#5
Nie wiem
Odpowiedz
#6
Zawsze można dalej na chybił-trafił próbować instalować wszystkie możliwe kodeki...
Istnieje jeszcze druga droga - najpierw sprawdzić, jakim kodekiem jest zakodowane video, i zainstalować PEŁNĄ WERSJĘ tego kodeka (k-lite nie posiada pełnych wersji np. Xvid'a - ale za to można pobrać za darmo od producenta http://www.xvid.org - jeśli to XviD. Analogicznie dla pozostałych).

a do sprawdzenia - MediaInfo odpal (jak masz k-lite, to masz MediaInfo - bo jest instalowane razem z pakietem ;)
Odpowiedz
#7
General
Complete name : D:\One Piece\One Piece 001.avi
Format : AVI
Format/Info : Audio Video Interleave
File size : 117 MiB
Duration : 24mn 36s
Overall bit rate : 666 Kbps
Writing application : MEncoder 1.0rc2-on2-3.3.6
Writing library : MPlayer

Video
ID : 0
Format : AVC
Format/Info : Advanced Video Codec
Format profile : Main@L5.1
Format settings, CABAC : Yes
Format settings, ReFrames : 1 frame
Codec ID : h264
Duration : 24mn 35s
Bit rate : 525 Kbps
Width : 640 pixels
Height : 480 pixels
Display aspect ratio : 4:3
Frame rate : 23.976 fps
Color space : YUV
Chroma subsampling : 4:2:0
Bit depth : 8 bits
Scan type : Progressive
Bits/(Pixel*Frame) : 0.071
Stream size : 92.4 MiB (79%)
Writing library : x264 core 54
Encoding settings : cabac=1 / ref=1 / deblock=1:0:0 / analyse=0x1:0x111 / me=hex / subme=5 / brdo=0 / mixed_ref=0 / me_range=16 / chroma_me=1 / trellis=0 / 8x8dct=0 / cqm=0 / deadzone=21,11 / chroma_qp_offset=0 / slices=1 / nr=0 / decimate=1 / mbaff=0 / bframes=0 / keyint=250 / keyint_min=25 / scenecut=40 / rc=cqp / qp=26 / ip_ratio=1.40

Audio
ID : 1
Format : MPEG Audio
Format version : Version 1
Format profile : Layer 3
Mode : Joint stereo
Mode extension : MS Stereo
Codec ID : 55
Codec ID/Hint : MP3
Duration : 24mn 36s
Bit rate mode : Constant
Bit rate : 128 Kbps
Channel(s) : 2 channels
Sampling rate : 48.0 KHz
Compression mode : Lossy
Stream size : 22.5 MiB (19%)
Alignment : Aligned on interleaves
Interleave, duration : 24 ms (0.58 video frame)
Interleave, preload duration : 432 ms
Writing library : LAME3.97


To cała informacja pliku
Odpowiedz
#8
avc w avi nie jest dobrym połączeniem dla Vegasa. Wyciągnij strumienie audio i video (nie wiem, czy TsMuxer łyka avi, ale chyba nie, więc inny muxer...).

Oczywiście zakładam, że QuickTime zainstalowany.
Odpowiedz
#9
To co zrobić żeby działało?
Odpowiedz
#10
nie wyświetla Ci się to, co napisałem wyżej?

To skopiuję jeszcze raz:
Wyciągnij strumienie audio i video (nie wiem, czy TsMuxer łyka avi, ale chyba nie, więc inny muxer...).
Odpowiedz



   


Podobne wątki
Wątek: Autor Odpowiedzi: Wyświetleń: Ostatni post
  Pomoc przy kupnie Sony Vegas memento 3 946 09-27-2014, 11:53
Ostatni post: mateuszszar
  Sony Vegas Pro 10 | Dodaje sam kolorki. PROSZE O SZYBKA POMOC. MIX352 15 2,257 06-01-2014, 17:33
Ostatni post: Bunch
  Pomoc Nie moge zainstalowac sony vegas pro 11 Wodica 2 1,618 11-10-2012, 12:39
Ostatni post: Wodica
  Sony vegas pro 9 Pomoc w pierwszym filmie dami555 3 1,775 08-13-2010, 19:40
Ostatni post: dami555

Skocz do:


Użytkownicy przeglądający ten wątek: 1 gości