program zawiesza się przy ładowaniu pliku
#1
Kiedy klikam na ikonę filmu żeby otworzyć go w SV, program automatycznie wiesza się.
Do Corela "wszedł" bez problemu.

Plik wygląda tak :


General
ID : 1 (0x1)
Complete name : E:\MUZYKA GŁÓWNY KATALOG\Marcus Miller - Live At Lugano Jazz Fest, 2008\Marcus Miller-Estival Jazz Lugano 2008.ts
Format : MPEG-TS
File size : 6.91 GiB
Duration : 1h 13mn
Overall bit rate : 13.5 Mbps
Maximum Overall bit rate : 35.5 Mbps

Video
ID : 4113 (0x1011)
Menu ID : 1 (0x1)
Format : AVC
Format/Info : Advanced Video Codec
Format profile : High@L4.0
Format settings, CABAC : Yes
Format settings, ReFrames : 2 frames
Format settings, GOP : M=3, N=24
Codec ID : 27
Duration : 1h 13mn
Bit rate mode : Variable
Bit rate : 12.4 Mbps
Maximum bit rate : 13.2 Mbps
Width : 1 280 pixels
Height : 720 pixels
Display aspect ratio : 16:9
Frame rate : 50.000 fps
Color space : YUV
Chroma subsampling : 4:2:0
Bit depth : 8 bits
Scan type : Progressive
Bits/(Pixel*Frame) : 0.269
Stream size : 6.34 GiB (92%)
Color primaries : BT.709-5, BT.1361, IEC 61966-2-4, SMPTE RP177
Transfer characteristics : BT.709-5, BT.1361
Matrix coefficients : BT.709-5, BT.1361, IEC 61966-2-4 709, SMPTE RP177

Audio
ID : 4352 (0x1100)
Menu ID : 1 (0x1)
Format : AC-3
Format/Info : Audio Coding 3
Mode extension : CM (complete main)
Codec ID : 129
Duration : 1h 13mn
Bit rate mode : Constant
Bit rate : 448 Kbps
Channel(s) : 2 channels
Channel positions : Front: L R
Sampling rate : 48.0 KHz
Bit depth : 16 bits
Compression mode : Lossy
Stream size : 235 MiB (3%)
Language : English
Odpowiedz
#2
Vegas nie obsługuje plików .ts
Odpowiedz
#3
Obsługuje, tylko jest bardzo wybredny.
Odpowiedz
#4
Super.
Odpowiedz
#5
(03-15-2013, 0:28)Pinto napisał(a):  Obsługuje, tylko jest bardzo wybredny.
Zapomniałem dodać że chodzi mi o strumienie z wszelakich tunków satelitarnych i kart tv.
Odpowiedz
#6
(03-15-2013, 1:03)walerka napisał(a):  (...)chodzi mi o strumienie z wszelakich tunków satelitarnych i kart tv.

Zgadza się.
Odpowiedz



   


Podobne wątki
Wątek: Autor Odpowiedzi: Wyświetleń: Ostatni post
  SV zawiesza się przy renderowaniu darooo 1 1,717 09-04-2013, 11:36
Ostatni post: efix
  Błąd przy tworzeniu pliku - komunikat.. wojtek002 14 4,163 01-06-2013, 17:02
Ostatni post: wojtek002
  Problem z Vegasem, przy usuwaniu klipu zawiesza się Gordon Sacrilegist 5 1,353 09-08-2012, 21:40
Ostatni post: crazyjoe
  Sony zawiesza tylko przy usuwaniu, cofaniu pliku na timeline SYRUSZ200 5 1,630 08-29-2012, 1:05
Ostatni post: walerka
  Problem przy wczytywaniu pliku fusionek 2 733 11-08-2011, 19:26
Ostatni post: fusionek
  Problem z plikiem avi przy otwieraniu pliku Puchal 1 1,332 07-02-2011, 15:55
Ostatni post: Piciu

Skocz do:


Użytkownicy przeglądający ten wątek: 1 gości