Problemy z youtube
#1
Witam,

Ostatnio zacząłem nagrywać w wolnym czasie gameplay'e lub jak kto woli let's playe z gier. Filmiki renderuje w Sony Vegas 11. Ostatni filmik jaki dodałem jest w takim bitrate
Kod:
Bit rate mode                            : Variable
Bit rate                                 : 8 387 Kbps
Maximum bit rate                         : 10 000 Kbps
a na youtube jakość jego jest dużo gorsza.

Screeny:
Film na komputerze po renderingu:
[Obrazek: na_kompie_3_min.png]

Film na youtube:
[Obrazek: youtube_min.png]


Widać duża różnicę. Daję informacje o filmie:
Kod:
General
Complete name                            : F:\BF.mp4
Format                                   : MPEG-4
Format profile                           : Base Media / Version 2
Codec ID                                 : mp42
File size                                : 978 MiB
Duration                                 : 16mn 2s
Overall bit rate mode                    : Variable
Overall bit rate                         : 8 519 Kbps
Encoded date                             : UTC 2013-02-04 01:51:51
Tagged date                              : UTC 2013-02-04 01:51:51

Video
ID                                       : 2
Format                                   : AVC
Format/Info                              : Advanced Video Codec
Format profile                           : High@L4.0
Format settings, CABAC                   : Yes
Format settings, ReFrames                : 2 frames
Muxing mode                              : Container profile=High@3.1
Codec ID                                 : avc1
Codec ID/Info                            : Advanced Video Coding
Duration                                 : 16mn 2s
Bit rate mode                            : Variable
Bit rate                                 : 8 387 Kbps
Maximum bit rate                         : 10 000 Kbps
Width                                    : 1 280 pixels
Height                                   : 720 pixels
Display aspect ratio                     : 16:9
Frame rate mode                          : Constant
Frame rate                               : 23.976 fps
Color space                              : YUV
Chroma subsampling                       : 4:2:0
Bit depth                                : 8 bits
Scan type                                : Progressive
Bits/(Pixel*Frame)                       : 0.380
Stream size                              : 963 MiB (98%)
Language                                 : English
Encoded date                             : UTC 2013-02-04 01:51:51
Tagged date                              : UTC 2013-02-04 01:51:51

Audio
ID                                       : 1
Format                                   : AAC
Format/Info                              : Advanced Audio Codec
Format profile                           : LC
Codec ID                                 : 40
Duration                                 : 16mn 2s
Bit rate mode                            : Constant
Bit rate                                 : 128 Kbps
Channel(s)                               : 2 channels
Channel positions                        : Front: L R
Sampling rate                            : 48.0 KHz
Compression mode                         : Lossy
Delay relative to video                  : -11ms
Stream size                              : 14.7 MiB (2%)
Language                                 : English
Encoded date                             : UTC 2013-02-04 01:51:51
Tagged date                              : UTC 2013-02-04 01:51:51


Drugi mój problem polega na zielono/fioletowym pasku na dole filmiku. Na komputerze, film wygląda normalnie, bez żadnych pasków a na youtube jest.

Screen:
[Obrazek: zielony_pasek_min.png]



Przez co pojawiają się takie problemy? Coś źle robię czy problem leży u Youtube i do nich mam pisać?
Odpowiedz
#2
#1 Problem

O ile wiem to na YouTube po dodaniu filmu można go ulepszyć zmieniając kolor, usuwając drżenia i inne duperele.
To YT zmienia twój film SV nie ma nic do tego.
Odpowiedz
#3
A nie ustawiłeś czasem jakiegoś niestandardowego rozmiaru tego filmu?

Maciej Lewandowski - efix.pl
Odpowiedz
#4
Rozdzielczość to 1280x720p
Odpowiedz
#5
Myślę, że z YT nikt nigdy nie dostał odpowiedzi, ale jakbyś jeszcze dokładnie napisał, czym to kodowałeś, jaki Vegas, czy aktualne, czy masz jakieś codec packi itd. Być może YT nie potrafi poprawnie odczytać Twojej pracy.

Maciej Lewandowski - efix.pl
Odpowiedz
#6
Nie wiem dlaczego tak jest ale jak z tego filmiku zrobię sztuczne 1080p tzn przekonwertuję z 1280x720 na 1920x1080 to jakość na yt jest taka jaka powinna być tylko że waży więcej ;-)
Odpowiedz



   


Skocz do:


Użytkownicy przeglądający ten wątek: 1 gości