Codeki Canopusa (Grassvaley) za free
#1
Jeżeli ktoś kiedyś używał kodeków Canopusa (obecnie Grassvaley) to wie, że zawsze był to synonim jakości. Zwykle kodeki były albo związane ze sprzętem, a jak darmowe do pobrania, to tylko "do odczytu".
Teraz, po rejestracji na stronie można pobrać paczkę kodeków i używać także do kodowania.
Link: http://www.grassvalley.com/support/downl...wnload=643
Uwaga - kodeków nie powinny instalować osoby które mają Ediusa lub inny soft Grassvaley który juz używa tych kodeków.
Pobrałem, działają w Vegasie, nie rozczytywałem się, który jakie ma właściwości i do czego się najlepiej nadaje (z wyjątkiem CanopusDV bo to chyba oczywiste...), ale zrobiłem prosty test.
Z pliku MTS o parametrach:

************************
Video
ID : 4113 (0x1011)
Menu ID : 1 (0x1)
Format : AVC
Format/Info : Advanced Video Codec
Format profile : High@L4.0
Format settings, CABAC : Yes
Format settings, ReFrames : 4 frames
Format settings, GOP : M=3, N=12
Codec ID : 27
Duration : 19s 120ms
Bit rate mode : Variable
Bit rate : 15.6 Mbps
Maximum bit rate : 16.8 Mbps
Width : 1 920 pixels
Height : 1 080 pixels
Display aspect ratio : 16:9
Frame rate : 25.000 fps
Color space : YUV
Chroma subsampling : 4:2:0
Bit depth : 8 bits
Scan type : Interlaced
Scan order : Top Field First
Bits/(Pixel*Frame) : 0.301
Stream size : 35.6 MiB (93%)

Audio
ID : 4352 (0x1100)
Menu ID : 1 (0x1)
Format : AC-3
Format/Info : Audio Coding 3
Mode extension : CM (complete main)
Format settings, Endianness : Big
Codec ID : 129
Duration : 19s 232ms
Bit rate mode : Constant
Bit rate : 256 Kbps
Channel(s) : 2 channels
Channel positions : Front: L R
Sampling rate : 48.0 KHz
Bit depth : 16 bits
Compression mode : Lossy
Delay relative to video : -80ms
Stream size : 601 KiB (2%)
************************
wyrenderowałem 10 sekund jako uncopressed avi a z niego "potomstwo". Wyniki wielkości:

Uncopressed AVI - 1,9GB
CanopusC210 - 1,2GB
CanopusHQ - 120,7MB
CanopusHQX - 95,9MB
Canopus Lossless - 794,9MB
Lagarith - 469,7MB
SonyYUV - 0,9GB

Następnie sprawdziłem, czy działa smart rendering, renderując 5 sekund ze środka:
Uncopressed AVI - nie (???)
CanopusC210 - 1,2GB - tak
CanopusHQ - 120,7MB - tak
CanopusHQX - 95,9MB - tak
Canopus Lossless - 794,9MB - tak
Lagarith - 469,7MB - tak
SonyYUV - 0,9GB - tak

To tak na szybko, może komuś z dobrym prockiem np. i7 chciałby się sprawdzić czasy?
Testów jakości nie robiłem.

UWAGA: kodek tylko dla Windows7/8

PS -Ciekawostka: Canopus HQ i HQX mogą używać kanału alfa, z tym, że Vegas może odczytać alfę ale nie wyeksportujemy z alfą z Vegasa. Canopus Lossles też, ale plik zachowuje się ciut dziwnie podczas kompozycji. Zapraszam do eksperymentów.

Maciej Lewandowski - efix.pl
Odpowiedz
#2
Dzięki za informację, trzeba będzie zobaczyć co jak.
Odpowiedz



   


Skocz do:


Użytkownicy przeglądający ten wątek: 1 gości