Problem z plikami mp4
#1
Witam
Mam problem z filmami mp4 które ściągnąłem z Youtube. Chodzi o to, że gdy oglądam je na dowolnym odtwarzaczu wszystko jest ok a gdy wrzuce do vegasa to obraz się zacina i zniekształca. Dla przykładu tak to wygląda: http://scr.hu/9py/qsylf
To też zależy od filmiku, bo niektóre tylko lekko się zniekształcają ale obraz się nie przycina. Tak rozmyślałem, że może to wina jakichś kodeków. Mam niby K-Lite Codec Pack i ściągnąłem też ffdshow ale nic nie poprawiło. Mieliście może podobny problem i wiecie jak go rozwiązać? Byłbym bardzo wdzięczny.
Odpowiedz
#2
generalnie filmiki z youtube'a są w FLV (AVC)... ale różnie bywa.
Nie jest to najlepsza forma AVC, nadająca się do dalszej obróbki. Radzę Ci przekonwertować, na jakś bardziej nadający się do edycji - format

Może przemuxować wystarczy... ja nie próbowałem. Jednak wydaje mi się, że lepiej od razu walnąć do czegoś bardziej strawnego :)
Odpowiedz
#3
(12-06-2012, 13:17)mateuszszar napisał(a):  generalnie filmiki z youtube'a są w FLV (AVC)... ale różnie bywa.
Nie jest to najlepsza forma AVC, nadająca się do dalszej obróbki. Radzę Ci przekonwertować, na jakś bardziej nadający się do edycji - format

Może przemuxować wystarczy... ja nie próbowałem. Jednak wydaje mi się, że lepiej od razu walnąć do czegoś bardziej strawnego :)
Ja się na tym nie znam więc będę walił głupie pytania, z góry przepraszam :)
Jaki format dla sony vegas będzie najodpowiedniejszy?
Odpowiedz
#4
Jaka rozdzielczość?
Jeśli jakaś nietypowa - to AVI DV (jeśli rozdzielczosć SD), bez kompresji, albo z jakimś kodekiem zdatnym do obróbki (ja w AVI się nie bawię, więc nie wiem).
Jeśli typowa rozdzielczość (SD, HD), to osobiście bym przerobił na MPEG2... ewentualnie AVC w kontenerze MP4 (Sony AVC, MainConcept AVC) - jeśli masz mocny komputer, ktory jest w stanie to uciągnąć bez problemów.
Odpowiedz
#5
Tak wygląda filmik który stwarza mi najwięcej problemów:
Kod:
General
Complete name                    : D:\o-projekt\Drunk_football_supporter_-_sex_moves_behind_a_reporter_cop_spain-1.mp4
Format                           : MPEG-4
Format profile                   : Base Media / Version 2
Codec ID                         : mp42
File size                        : 1.95 MiB
Duration                         : 38s 480ms
Overall bit rate                 : 425 Kbps
Encoded date                     : UTC 2009-03-07 17:27:52
Tagged date                      : UTC 2009-03-07 17:27:52
gsst                             : 0
gstd                             : 38915
gssd                             : B4A7DDA07MH1354787528691571
gshh                             : r7---fra07t11.c.youtube.com

Video
ID                               : 2
Format                           : AVC
Format/Info                      : Advanced Video Codec
Format profile                   : Baseline@L1.1
Format settings, CABAC           : No
Format settings, ReFrames        : 1 frame
Codec ID                         : avc1
Codec ID/Info                    : Advanced Video Coding
Duration                         : 38s 480ms
Bit rate mode                    : Variable
Bit rate                         : 316 Kbps
Maximum bit rate                 : 516 Kbps
Width                            : 320 pixels
Height                           : 240 pixels
Display aspect ratio             : 4:3
Frame rate mode                  : Constant
Frame rate                       : 24.974 fps
Color space                      : YUV
Chroma subsampling               : 4:2:0
Bit depth                        : 8 bits
Scan type                        : Progressive
Bits/(Pixel*Frame)               : 0.165
Stream size                      : 1.45 MiB (74%)
Title                            : (C) 2007 Google Inc. v08.13.2007.
Encoded date                     : UTC 2009-03-07 17:27:52
Tagged date                      : UTC 2009-03-07 17:27:52

Audio
ID                               : 1
Format                           : AAC
Format/Info                      : Advanced Audio Codec
Format version                   : Version 4
Format profile                   : LC
Format settings, SBR             : No
Codec ID                         : 40
Duration                         : 38s 475ms
Bit rate mode                    : Variable
Bit rate                         : 105 Kbps
Maximum bit rate                 : 112 Kbps
Channel(s)                       : 2 channels
Channel positions                : Front: L R
Sampling rate                    : 44.1 KHz
Stream size                      : 497 KiB (25%)
Title                            : (C) 2007 Google Inc. v08.13.2007.
Encoded date                     : UTC 2009-03-07 17:27:52
Tagged date                      : UTC 2009-03-07 17:27:52

Co do komputera to mam raczej słabego.
Odpowiedz



   


Podobne wątki
Wątek: Autor Odpowiedzi: Wyświetleń: Ostatni post
  Problem z plikami .avi rozumisz105 1 402 01-08-2015, 0:04
Ostatni post: m20
  problem z plikami mov Endru 3 1,245 08-12-2013, 13:24
Ostatni post: Endru

Skocz do:


Użytkownicy przeglądający ten wątek: 1 gości