Pliki .MOV
#1
Witam. Posiadam filmy z rozszerzeniem MOV i gdy proboje je odpalic w sony vegasie pro 10 wyskakuje mi blad prosze zobaczyc :

http://scr.hu/80g/t6v6d


probowalem juz zmieniac format z mov na avi mp4 itd ale nadal ten blad jest czy wie ktos moze jak mi pomoc ? ten filmik to intro i bardzo chcialbym go miec. Malo uzyskalem pomocy z google ludzie mowili i jakis skryptach i kodekach oczekuje troche wiecej pomocy.

Pozdrawiam
Odpowiedz
#2
Z komunikatu wynika, że nie masz zainstalowanej wymaganej wersji QuickTime...

Ciekawe, że radzisz się różnych ludzi, i słuchasz ich rad, a nie zastosujesz tego, o co prosi program :)

Poza tym, napisz może, jakie są parametry tego nieszczęsnego MOVa (najlepiej odczytaj za pomocą MediaInfo: http://mediainfo.sourceforge.net/pl)
Odpowiedz
#3
Instalowalem tego Quicka i nadal problem jest probowalem tez instalowac te kodeki i nadal jest to samo
Odpowiedz
#4
Odinstaluj Vegasa, QuickTime, wyczyść rejestr, zainstaluj QT (wersję co najmniej taką, o jaką prosi vegas, ale lepiej najnowszą), zainstaluj Vegasa.

I podaj te parametry pliku. Może to jakiś "dziwny" MOV?

Jeśli możesz, daj jakiś przykładowy mały MOV na dropboxa czy coś w tym stylu, to sprawdzę, czy problem leży w pliku, czy w programie.
Odpowiedz
#5
hmm o to ci chodzi te parametry ?


http://scr.hu/80g/ihpg5
Odpowiedz
#6
Nie. Chodzi mi o te:
Cytat:General
Complete name : C:\Users\Desktop\Once (film z lektorem).rmvb
Format : RealMedia
File size : 270 MiB
Duration : 1h 22mn
Overall bit rate : 448 Kbps

Video
ID : 1
Format : RealVideo 4
Codec ID : RV40
Codec ID/Info : Based on AVC (H.264), Real Player 9
Duration : 1h 22mn
Bit rate : 384 Kbps
Width : 640 pixels
Height : 352 pixels
Display aspect ratio : 16:9
Frame rate : 25.000 fps
Bits/(Pixel*Frame) : 0.068
Stream size : 227 MiB (84%)

Audio
ID : 0
Format : Cooker
Codec ID : cook
Codec ID/Info : Based on G.722.1, Real Player 6
Duration : 1h 22mn
Bit rate : 64.1 Kbps
Channel(s) : 2 channels
Sampling rate : 44.1 KHz
Bit depth : 16 bits
Stream size : 37.9 MiB (14%)
Odpowiedz
#7
prosze : http://scr.hu/80g/hdw9n
Odpowiedz
#8
Z tym plikiem nie powinno być problemów.
Nie mam teraz zainstalowanej dziesiątki, ale sprawdziłem na VP11 (najnowszy build), oraz na VP9 (najnowszy build), i takie pliki się otwierają bez problemów.
Odpowiedz
#9
(10-18-2012, 15:39)mateuszszar napisał(a):  Z tym plikiem nie powinno być problemów.
Nie mam teraz zainstalowanej dziesiątki, ale sprawdziłem na VP11 (najnowszy build), oraz na VP9 (najnowszy build), i takie pliki się otwierają bez problemów.

Hmm, sciagnolem program ktory przekonwertuje pliki .MOV na avi i to tez zrobilem przekonwertowalem mialem potem pliczek .AVI i gdy proboje go odpalic w vegasie pojawia mi sie taki komunikat wgl niektore avi mi sie nie uruchomic :

http://scr.hu/80g/4p4py

sciagalem inne kodeki aktualnie posiadam K-Lite i tez nic a moze wysle Tobie ten filmik i sprawdzisz czy Ci sie otworzy? jak tak to masz link :

http://www16.zippyshare.com/v/6236095/file.html

dziwne jest to, ze gdy ten pliczek dam do windows movie maker ktory jest gorszy do porowaninia z sony vegasem to tam dziala ten plik bez problemow
Odpowiedz
#10
(10-18-2012, 15:50)matys243 napisał(a):  ...pliczek .AVI i gdy proboje go odpalic w vegasie pojawia mi sie taki komunikat...
Nie rozwinąłeś "details", wiec nie wiadomo, o co się pluje tym razem.
Tzn. wiadomo, że o kodeki :)

Ten plik MOV normalnie mi się otwiera.
Druga sprawa, jeśli chcesz zachować przezroczystość (kanał alpha), który jest w tym klipie, to ja bym nie konwertował.
Zainstaluj poprawnie QT jak pisałem, na wyczyszczonym rejestrze, a następnie zainstaluj najnowszy build Twojego Vegasa.
U mnie nawet na dziewiątce śmiga, więc nie sądzę, żeby był problem w samym vegasem.
A co do codek-packów, to ten konkretny MOV używa quick time'a, i jego kodeków. Nic innego nie potrzebujesz.
Odpowiedz



   


Skocz do:


Użytkownicy przeglądający ten wątek: 1 gości