media info
#1
Co oznacza "Bit rate" 9 770 Kbps?
W programie ustawiałem 9000 Kbps, tak jak pokazuje "Nominal Bit rate".
No i Overall bit rate też nie wiem 10,1 Mbps ?







Format : MPEG-PS
File size : 2.44 GiB
Duration : 34mn 38s
Overall bit rate : 10.1 Mbps

Video
ID : 224 (0xE0)
Format : MPEG Video
Format version : Version 2
Format profile : Main@Main
Format settings, BVOP : Yes
Format settings, Matrix : Default
Format settings, GOP : M=3, N=12
Duration : 34mn 38s
Bit rate mode : Constant
Bit rate : 9 770 Kbps
Nominal bit rate : 9 000 Kbps
Width : 720 pixels
Height : 576 pixels
Display aspect ratio : 16:9
Frame rate : 25.000 fps
Standard : PAL
Color space : YUV
Chroma subsampling : 4:2:0
Bit depth : 8 bits
Scan type : Progressive
Compression mode : Lossy
Bits/(Pixel*Frame) : 0.942
Stream size : 2.36 GiB (97%)

Audio
ID : 192 (0xC0)
Format : MPEG Audio
Format version : Version 1
Format profile : Layer 2
Duration : 34mn 38s
Bit rate mode : Constant
Bit rate : 128 Kbps
Channel(s) : 2 channels
Sampling rate : 48.0 KHz
Compression mode : Lossy
Stream size : 31.7 MiB (1%)
Odpowiedz
#2
Może by ktoś napisał parę słów o tych danych z media info.
Nie mogę coś w sieci znaleźć konkretnego wytłumaczenia.
Odpowiedz
#3
Bit Rate 9770 Kbps oznacza iż każda sekunda filmu zajmować będzie 9,77Mb - coś więcej potrzebujesz?
A tak serio... O co pytasz? Bo nie bardzo rozumiem. Ustawiłeś sobie Nominal BR na 9000Kbps i Overall BR na 10100Kbps and what?
Odpowiedz
#4
Plik CBR ustawiłem w programie na 9 Mbps i nic więcej nie zmieniałem w programowym mpeg2.
Ciekawi mnie więc skąd się więc bierze w Media Info liczba 9,77 Mbps i co dokładnie oznacza w tym przypadku.
To samo z overall bit rate - 10,1 Mbps?

Skoro max przepływowość dla DVD to ok. 9,8 Mbps , ja ustawiłem 9 Mbps + audio 128 Kbps to z czego wynika overall 10,1Mbps ?
Nie mogę nigdzie znaleźć info na ten temat.
Odpowiedz



   


Skocz do:


Użytkownicy przeglądający ten wątek: 1 gości