Renderowanie - zwężony obraz
#1
Witam, mam taki problem. Zacząłem renderować komunię i ku mojemu zdziwieniu po wyrenderowaniu do Architekta po obu stronach są pasy jakby był inny format filmu. Materiał nagrywany i obrabiany w HD 1920x1080. W między czasie składałem wesele parametry te same i nie ma tego efektu renderuje się na całym obrazie, a tu obcina. Co trzeba przestawić żeby obraz renderował się na całym ekranie?
Odpowiedz
#2
Ale renderujesz do DVD czy zostawiasz w HD?
Odpowiedz
#3
Renderuję do DVD, z innymi projektami nie mam tego problemu jest "pełne" 16:9 na monitor jest wypełniony w 100%, a na tym jedynym projekcie nie. w oknie podglądu też jest wszystko w porządku.
Odpowiedz
#4
Jako, że sam z tym kiedyś miałem problem, a w sumie rozwiązania nie znalazłem to podpinam w załączniku wszystkie dokładne ustawienia, których ty nie podałeś.

Surowy plik:
Kod:
General
ID                                       : 0 (0x0)
Complete name                            : D:\Kamera\Jelenia\00508.MTS
Format                                   : BDAV
Format/Info                              : Blu-ray Video
File size                                : 17.0 MiB
Duration                                 : 8s 282ms
Overall bit rate mode                    : Variable
Overall bit rate                         : 17.1 Mbps
Maximum Overall bit rate                 : 18.0 Mbps

Video
ID                                       : 4113 (0x1011)
Menu ID                                  : 1 (0x1)
Format                                   : AVC
Format/Info                              : Advanced Video Codec
Format profile                           : High@L4.0
Format settings, CABAC                   : Yes
Format settings, ReFrames                : 2 frames
Format settings, GOP                     : M=2, N=13
Codec ID                                 : 27
Duration                                 : 8s 240ms
Bit rate mode                            : Variable
Bit rate                                 : 16.2 Mbps
Maximum bit rate                         : 16.0 Mbps
Width                                    : 1 920 pixels
Height                                   : 1 080 pixels
Display aspect ratio                     : 16:9
Frame rate                               : 25.000 fps
Color space                              : YUV
Chroma subsampling                       : 4:2:0
Bit depth                                : 8 bits
Scan type                                : Interlaced
Scan order                               : Top Field First
Bits/(Pixel*Frame)                       : 0.312
Stream size                              : 15.9 MiB (94%)

Audio
ID                                       : 4352 (0x1100)
Menu ID                                  : 1 (0x1)
Format                                   : AC-3
Format/Info                              : Audio Coding 3
Mode extension                           : CM (complete main)
Format settings, Endianness              : Big
Codec ID                                 : 129
Duration                                 : 8s 320ms
Bit rate mode                            : Constant
Bit rate                                 : 256 Kbps
Channel(s)                               : 2 channels
Channel positions                        : Front: L R
Sampling rate                            : 48.0 KHz
Bit depth                                : 16 bits
Compression mode                         : Lossy
Delay relative to video                  : -80ms
Stream size                              : 260 KiB (1%)

Text
ID                                       : 4608 (0x1200)
Menu ID                                  : 1 (0x1)
Format                                   : PGS
Codec ID                                 : 144
Duration                                 : 7s 735ms
Delay relative to video                  : -80ms

projekt
[Obrazek: projekt.jpg]

render:
[Obrazek: render.jpg]
Odpowiedz
#5
Cześć, mam problem z renderowaniem, nagrywam filmiki w gta 4, wybieram HD 720 na youtube a filmiki się zmniejszają.

Proszę zobaczyć dlaczego tak jest? ;/

Odpowiedz
#6
Ponieważ nie umiesz posługiwać się narzędzie którego używasz i nie rozumiesz co robisz.

Maciej Lewandowski - efix.pl
Odpowiedz
#7
To możesz jakoś pomóc?
Odpowiedz
#8
Jasne - na forum wiele razy były poruszane te tematy. Wystarczy tylko trochę wysiłku i poszukać. Przede wszystkim zapoznać się trochę z programem. A NADE WSZYSTKO jak o coś pytasz, to do k.. nędzy przeczytaj najpierw regulamin. Primo pisz w dziale dla nubów, secundo podaj wszystkie potrzebne informacje jak o to prosimy - paremetry plikwó wejsciowy, projektu, renderu.

Maciej Lewandowski - efix.pl
Odpowiedz



   


Skocz do:


Użytkownicy przeglądający ten wątek: 1 gości