problem ze zdjeciami w filmie - czarne boki
#1
witam

tworze nowy film gdzie zdjecia beda wplecione w obraz video i mam pytanie - jak zniwelować te czarne pasy po bokach ?

tutaj moj starszy film w którym nie udało mi sie tego problemu pozbyc



Odpowiedz
#2
wystarczy trochę wykadrować, pod obraz 16:9
Pan/crop
Odpowiedz
#3
Film był kręcony w 4:3, więc jest jak najbardziej prawidłowo wyświetlany. Zlikwidujesz czarne pasy, to utniesz obraz na górze i na dole...
Odpowiedz
#4
na stronie YT jest w 16:9...
Odpowiedz
#5
mateusz a kadrujesz w sony vegas czy przed wrzucaniem na os czasu w jakims programie graficznym ?
Odpowiedz
#6
w Vegas, za pomocą Pan/Crop, jak już napisałem w pierwszym moim poście ;)
Każde zdjęcie osobno - rzecz jasna.
Można zresztą ustawić, aby każde wczytywane zdjęcie było kadrowane (przycinane) do ustawień projektu. Domyślnie jednak Vegas przeskalowuje, aby całe zdjęcie było widoczne.
Jeśli wszystkie zdjęcia mają tę sama rozdzielczość, możesz wykadrować pierwsze zdjęcie, do odpowiednich parametrów, a następnie klikasz na to zdjęcie na timeline prawym przyciskiem, dajesz Copy, a następnie zaznaczasz pozostałe zdjęcia -> prawoklik -> Past event attributes... tyle, że skopiujesz w ten sposób wszystkie ustawienia eventu/zdjęcia (kadrowanie, efekty, przejścia...).
Odpowiedz
#7
o to zaraz bede próbował

napiszesz mi jeszcze jak zrobic zeby zdjecie w trakcie filmu sie lekko przyblizało lub oddalało ?
Odpowiedz
#8
Ta sama opcja, na dole okienka ustawiasz keyframe'y.
Odpowiedz
#9
(04-25-2012, 18:15)mateuszszar napisał(a):  na stronie YT jest w 16:9...

Jakoś nie widzę tego 16:9.
Odpowiedz
#10
@Pinto - proszę:
- youtube
   

- mediaInfo

.txt   videoplayback[1].mp4.txt (Rozmiar: 6.26 KB / Pobrań: 52)
Cytat:General
Complete name : C:\Users\mateusz\Desktop\videoplayback[1].mp4
Format : MPEG-4
Format profile : Base Media / Version 2
Codec ID : mp42
File size : 33.7 MiB
Duration : 4mn 2s
Overall bit rate mode : Variable
Overall bit rate : 1 168 Kbps
Encoded date : UTC 2011-08-27 12:51:20
Tagged date : UTC 2011-08-27 12:51:20
gsst : 0
gstd : 242081
gssd : BADC213A5MH1335382718176201
gshh : o-o.preferred.fra02s01.v20.lscache4.c.youtube.com

Video
ID : 1
Format : AVC
Format/Info : Advanced Video Codec
Format profile : High@L3.1
Format settings, CABAC : Yes
Format settings, ReFrames : 1 frame
Codec ID : avc1
Codec ID/Info : Advanced Video Coding
Duration : 4mn 2s
Bit rate : 1 011 Kbps
Maximum bit rate : 5 957 Kbps
Width : 1 280 pixels
Height : 720 pixels
Display aspect ratio : 16:9
Frame rate mode : Variable
Frame rate : 12.000 fps
Minimum frame rate : 11.905 fps
Maximum frame rate : 12.048 fps
Color space : YUV
Chroma subsampling : 4:2:0
Bit depth : 8 bits
Scan type : Progressive
Bits/(Pixel*Frame) : 0.091
Stream size : 29.2 MiB (87%)
Tagged date : UTC 2011-08-27 12:51:21

Audio
ID : 2
Format : AAC
Format/Info : Advanced Audio Codec
Format profile : LC
Codec ID : 40
Duration : 4mn 2s
Bit rate mode : Variable
Bit rate : 152 Kbps
Maximum bit rate : 178 Kbps
Channel(s) : 2 channels
Channel positions : Front: L R
Sampling rate : 44.1 KHz
Compression mode : Lossy
Stream size : 4.38 MiB (13%)
Title : IsoMedia File Produced by Google, 5-11-2011
Encoded date : UTC 2011-08-27 12:51:21
Tagged date : UTC 2011-08-27 12:51:21

Odpowiedz



   


Podobne wątki
Wątek: Autor Odpowiedzi: Wyświetleń: Ostatni post
  Problem z wideo, ścięte boki Simonowicz 1 1,040 02-03-2012, 20:18
Ostatni post: Padro Productions
  efekt ze zdjęciami maniek30dg 3 791 12-04-2011, 15:31
Ostatni post: Pinto
  time lapse odstęp między zdjęciami brzewa 5 1,816 07-21-2011, 23:32
Ostatni post: efix
  Przy maskowaniu widać boki habson1111 2 1,019 03-03-2011, 13:11
Ostatni post: habson1111

Skocz do:


Użytkownicy przeglądający ten wątek: 1 gości