Problem z renderowaniem
#1
Witam natknąłem się na pewien problem. Dotychczas nagrywałem kamerą video w opcji HD FH- czyli AVCHD i nie było żadnych problemów. Natomiast raz zmieniłem na full hd i Sony Vegas nie może tych plików wyrenderować w .avi z xvidem.

Media Info:
Kod:
General
ID/String                        : 0 (0x0)
CompleteName                     : D:\Kamera\Julka\00597.MTS
Format                           : BDAV
Format/Info                      : Blu-ray Video
FileSize/String                  : 56.3 MiB
Duration/String                  : 27s 542ms
OverallBitRate_Mode/String       : Variable
OverallBitRate/String            : 17.1 Mbps
OverallBitRate_Maximum/String    : 18.0 Mbps

Video
ID/String                        : 4113 (0x1011)
MenuID/String                    : 1 (0x1)
Format                           : AVC
Format/Info                      : Advanced Video Codec
Format_Profile                   : High@L4.0
Format_Settings_CABAC/String     : Yes
Format_Settings_RefFrames/String : 2 frames
Format_Settings_GOP              : M=2, N=13
CodecID                          : 27
Duration/String                  : 27s 480ms
BitRate_Mode/String              : Variable
BitRate/String                   : 16.2 Mbps
BitRate_Maximum/String           : 16.0 Mbps
Width/String                     : 1 920 pixels
Height/String                    : 1 080 pixels
DisplayAspectRatio/String        : 16:9
FrameRate/String                 : 25.000 fps
ColorSpace                       : YUV
ChromaSubsampling                : 4:2:0
BitDepth/String                  : 8 bits
ScanType/String                  : Interlaced
ScanOrder/String                 : Top Field First
Bits-(Pixel*Frame)               : 0.312
StreamSize/String                : 52.9 MiB (94%)

Audio
ID/String                        : 4352 (0x1100)
MenuID/String                    : 1 (0x1)
Format                           : AC-3
Format/Info                      : Audio Coding 3
Format_Settings_ModeExtension    : CM (complete main)
CodecID                          : 129
Duration/String                  : 27s 584ms
BitRate_Mode/String              : Constant
BitRate/String                   : 256 Kbps
Channel(s)/String                : 2 channels
ChannelPositions                 : Front: L R
SamplingRate/String              : 48.0 KHz
BitDepth/String                  : 16 bits
Compression_Mode/String          : Lossy
Video_Delay/String               : -80ms
StreamSize/String                : 862 KiB (1%)

Text
ID/String                        : 4608 (0x1200)
MenuID/String                    : 1 (0x1)
Format                           : PGS
CodecID                          : 144
Duration/String                  : 26s 975ms
Video_Delay/String               : -80ms
z tym nie ma problemów.
Oraz:
Kod:
General
ID                                       : 0 (0x0)
Complete name                            : D:\Kamera\Kulig\00155.MTS
Format                                   : BDAV
Format/Info                              : Blu-ray Video
File size                                : 16.3 MiB
Duration                                 : 6s 210ms
Overall bit rate mode                    : Variable
Overall bit rate                         : 22.0 Mbps
Maximum Overall bit rate                 : 24.0 Mbps

Video
ID                                       : 4113 (0x1011)
Menu ID                                  : 1 (0x1)
Format                                   : AVC
Format/Info                              : Advanced Video Codec
Format profile                           : High@L4.0
Format settings, CABAC                   : Yes
Format settings, ReFrames                : 2 frames
Format settings, GOP                     : M=2, N=13
Codec ID                                 : 27
Duration                                 : 6s 160ms
Bit rate mode                            : Variable
Bit rate                                 : 20.9 Mbps
Maximum bit rate                         : 22.0 Mbps
Width                                    : 1 920 pixels
Height                                   : 1 080 pixels
Display aspect ratio                     : 16:9
Frame rate                               : 25.000 fps
Color space                              : YUV
Chroma subsampling                       : 4:2:0
Bit depth                                : 8 bits
Scan type                                : Interlaced
Scan order                               : Top Field First
Bits/(Pixel*Frame)                       : 0.403
Stream size                              : 15.3 MiB (94%)

Audio
ID                                       : 4352 (0x1100)
Menu ID                                  : 1 (0x1)
Format                                   : AC-3
Format/Info                              : Audio Coding 3
Mode extension                           : CM (complete main)
Codec ID                                 : 129
Duration                                 : 6s 240ms
Bit rate mode                            : Constant
Bit rate                                 : 256 Kbps
Channel(s)                               : 2 channels
Channel positions                        : Front: L R
Sampling rate                            : 48.0 KHz
Bit depth                                : 16 bits
Compression mode                         : Lossy
Delay relative to video                  : -80ms
Stream size                              : 195 KiB (1%)

Text
ID                                       : 4608 (0x1200)
Menu ID                                  : 1 (0x1)
Format                                   : PGS
Codec ID                                 : 144
Duration                                 : 5s 655ms
Delay relative to video                  : -80ms

Do tego ustawienia projektu i renderingu.
Byłbym wdzięczny jeśli ktoś wyjaśnił mi gdzie leży problem i w którym miejscu moja niewiedza nie pozwala na poprawne wyrenderowanie video.



Załączone pliki Miniatury
       
Odpowiedz



   


Skocz do:


Użytkownicy przeglądający ten wątek: 1 gości