Brak dzwięku w wideo
#1
Witam.
Od jakiegoś czasu zmagam się z problemem:
moja kamera nagrywa w .avi. Gdy próbowałem wrzucić takie wideo do Sony Vegasa to nie było ani dźwięku ani obrazu i wyświetlało się:
Video: Stream attributes could not be determined.
Audio: Stream attributes could not be determined.

Pogrzebałem sporo w necie pościągałem różne kodeki (np. k-lite codec pack) i udało mi się uzyskać obraz wideo. Niestety dźwięku już nie ma... chociaż mam kodeki dźwiękowe ffdshow.

Teraz nie wiem już co mogę zrobić? Wiem, że mogę skonwertować z .avi do np. .wmv ale nie o to chodzi, .avi jest najwazniejsze, i wiem, że da się importować takie pliki do SV...

Wiecie co może mi pomóc? DZIĘKI Z GÓRY! :)
Odpowiedz
#2
Przede wszystkim musisz na wstępie sprawdzić, jakim kodekiem jest zakodowany film oraz dźwięk (np. za pomocą MediaInfo - wchodzi w skład paczki k-lite).
To nam da odpowiedź, jakie kodeki będą niezbędne do otworzenia filmu oraz dźwieku w programie.
Odpowiedz
#3
Raz, dwa i już masz informacje z tego programu :) Wszystko:

General
Complete name : C:\Documents and Settings\ja\Pulpit\nowy stadion\IMAG0126.AVI
Format : AVI
Format/Info : Audio Video Interleave
File size : 15.8 MiB
Duration : 31s 732ms
Overall bit rate : 4 177 Kbps
Recorded date : 2009-09-06
Writing library : AMBA
ICRT : 05:42:38

Video
ID : 0
Format : AVC
Format/Info : Advanced Video Codec
Format profile : Main@L4.0
Format settings, CABAC : Yes
Format settings, ReFrames : 4 frames
Codec ID : H264
Duration : 31s 732ms
Bit rate mode : Variable
Bit rate : 4 001 Kbps
Width : 1 280 pixels
Height : 720 pixels
Display aspect ratio : 16:9
Frame rate : 29.970 fps
Color space : YUV
Chroma subsampling : 4:2:0
Bit depth : 8 bits
Scan type : Progressive
Bits/(Pixel*Frame) : 0.145
Stream size : 15.3 MiB (97%)

Audio
ID : 1
Format : AAC
Format/Info : Advanced Audio Codec
Format profile : LC
Codec ID : FF
Duration : 31s 595ms
Bit rate : 128 Kbps
Channel(s) : 2 channels
Channel positions : Front: L R
Sampling rate : 48.0 KHz
Compression mode : Lossy
Stream size : 494 KiB (3%)
Alignment : Split accross interleaves
Interleave, duration : 21 ms (0.64 video frame)

Co teraz? :)
Odpowiedz
#4
był już taki temat poruszany: http://sonyvegas.info/Temat-AVI-w-pro-10
Możliwe, że odpowiedź znajdziesz TU:
(01-02-2011, 22:45)Pinto napisał(a):  
(12-09-2010, 16:01)ziajek444 napisał(a):  Swoją drogą to troche dziwne że mogłem ten film odpalić (oglądać) a nie mogłem go dodać do vegasa.
Pewnie Vegas 64-bitowy, a kodeki były 32-bit.

Pomijam, że na forum też już było, że AVI nie jest odpowiednim (najlepszym) kontenerem dla AVCHD...
Odpowiedz
#5
Zainstalowałem kodeki Xvid i nic - dźwięku nie ma nadal.
Może w kodekach audio trzeba coś poustawiać odpowiednio? Może coś jeszcze innego? Na pewno się da.

PS Gdy próbuję w tym K-lite zmienić status AAC z disable na libavcodec albo libfaad2 (nie wiem o co z tym chodzi) to wyskakuje mi "Podczas próby uruchomienia... wystąpił błąd wyjątku. Nie wiem czy to może mieć jakiś związek.
Odpowiedz
#6
To nie jest kwestia Xvid'a - przecież Twoje AVI są zakodowane AVCHD...
To powinno byc w systemie bez instalowania dodatkowych kodeków (o ile masz Windows 7).
Co do dźwięku - AAC jest wynalazkiem appla...
... masz zainstalowanego QuickTime'a? W miarę nowego?
Może tu jest problem?
Odpowiedz
#7
1. "masz zainstalowanego QuickTime'a? W miarę nowego?" nie mam żadnego.

2. "(o ile masz Windows 7)" mam XP SP3.

Co więc, zainstalować QuickTime'a? Co z Windowsem?
Odpowiedz
#8
Quick Time - na pewno musisz zainstalować - problem powinien się rozwiązać.

Vegas Pro 10 system requirements
•Microsoft Windows XP 32-bit SP3, Windows Vista 32-bit or 64-bit SP2, or Windows 7 32-bit or 64-bit
•2 GHz processor (multicore or multiprocessor CPU recommended for HD or stereoscopic 3D)
•400 MB hard-disk space for program installation
•1 GB RAM (2 GB recommended)
•OHCI-compatible i.LINK connector/IEEE-1394DV card (for DV and HDV capture and print-to-tape)
•USB 2.0 connection (for importing from AVCHD, XDCAM EX, NXCAM, or DVD camcorders)
•Windows-compatible sound card
•DVD-ROM drive (for installation from a DVD only)
•Supported CD-recordable drive (for CD burning only)
•Supported DVD-R/-RW/+R/+RW (for DVD burning only)
•Supported BD-R/-RE drive (for Blu-ray Disc burning only)
•Microsoft .NET Framework 3.0 (included on application disc)
•Apple QuickTime 7.1.6 or later
•Internet Connection (for Gracenote MusicID Service)

Co do Windowsa - nie jest konieczna zmiana, natomiast osobiście polecam Windowsa 7 - wersję 64bit. (oraz Vegas - również wersja 64bit).
Odpowiedz
#9
Zainstalowałem QuickTime 7.7 i nadal nic...

Ja mam Vegas Pro 9.0.
Odpowiedz
#10
Powiem tak wyłącz oryginalny dźwięk w każdej poszczególnej scenie tak aby na pasku pod video nie było śladu ścieżki dźwiękowej. Nie używaj wyciszenia z lewej strony tylko ręcznie każdą scenę. Czytałem gdzieś na YT o tym przez przypadek i ponoć pomogło.
Odpowiedz



   


Podobne wątki
Wątek: Autor Odpowiedzi: Wyświetleń: Ostatni post
  Brak przestrzeni w dzwięku po renderze w vegasie raf7677 5 194 08-06-2016, 0:11
Ostatni post: Bunch
  Brak pliku wideo po renderze wieju 2 242 05-13-2016, 10:34
Ostatni post: mateuszszar
  Problem z zapisanym projektem - czarny obraz, brak dźwięku ZAFIRa 10 785 01-18-2016, 0:04
Ostatni post: ZAFIRa
  Brak dźwięku po przetworzeniu filmu SVP13 Problem 4 764 08-29-2015, 11:17
Ostatni post: mateuszszar
  Brak dźwięku w niektórych fragmentach Stach 0 464 02-11-2015, 19:16
Ostatni post: Stach
  Brak dzwięku importowanego wideo do Sony Vegas 13 firedevil 18 3,956 12-21-2014, 14:20
Ostatni post: mateuszszar

Skocz do:


Użytkownicy przeglądający ten wątek: 1 gości