renderowanie - pojawiają się sceny, których nie było na osi
#1
mam pewien problem przy renderowaniu filmu w sony vegas 10a
po wyrenderowaniu w niektorych miejscach pojawiają mi sie sceny, ktorych wcale nie bylo na osi czasu (np ktore usunelem). co najdziwniejsze dzwięk jest taki jak byc powinien, jedynie obraz jest inny
nie wiem z czego to wynika i liczę na pomoc w rozwiazaniu tego problemu
Odpowiedz
#2
Masz wersję 10a, wiesz że aktualna to 10e? Zaktualizuj program na początek. Potem jeszcze podaj parametry projektu, footage, materiału wyjściowego. Możesz jeszcze dorzucić screeny.
Odpowiedz
#3
To chyba te już słynne podmienianie nie wiadomo dlaczego...
Odpowiedz
#4
Myślę z czego to wynika, bo 10 bawię się już od dłuższego czasu i sporo materiału się przewinęło. Począwszy od zwykłego PAL DV widescreen po materiał AVCHD fullHD z kamerek jvc i panasonic. Nigdy nie miałem problemów z podmienianiem plików, zawsze wszystko jak powinno być.
Odpowiedz
#5
słyszałem ze w 10e nic sie nie zmienilo wiec aktualizacja to strata czasu
liczylem na to ze gdy wykona sie pewną czynność ten błąd sie aktywuje (poniewaz czasem udaje sie zrobic projekt bez problemow na tych samych ustawieniach)
i mialem nadzieje, że wiecie co to za czynnosc ktora aktywuje ten błąd...
standardowe pal DV
film mocno poprzycinany za pomoca klawisza S
i na koncówce wyskakuje inny obraz i inny dzwiek
nie poraz pierwszy....

mam jeszcze pytanie
czy w Sony Vegas Movie Studio HD Platinum 11 występuje ten błąd? a może jakieś inne podobnie denerwujące?
Odpowiedz
#6
Może jednak spróbujesz z aktualizacją?
Odpowiedz
#7
zainstalowalem trial movie studio hd platinum 11, zrobilem caly projekt ręcznie na nowo i rezultat mnie zszokował... znowu pod koniec filmu pojawia sie inna scena a dzwiek jest prawidłowy. sprawdzam na osi i wszystko prawidłowo. Ręce opadają.
Widzę, że jeżeli film się składa z więcej niż 15 subklipów to zawsze są problemy, program się gubi.
Odpowiedz
#8
To powiem Ci ciekawostkę małą, nie mam problemów mając w tym momencie dokładnie 107 ujęć w projekcie.

Podaj dokładnie czym są zakodowane te pliki. Gspot najlepiej użyj do tego celu.
Odpowiedz
#9
Format : MPEG-PS
File size : 1.66 GiB
Duration : 39mn 0s
Overall bit rate : 6 098 Kbps
Writing library : ArcSoft MPEG-2 PAL

Video
ID : 224 (0xE0)
Format : MPEG Video
Format version : Version 2
Format profile : Main@Main
Format settings, BVOP : Yes
Format settings, Matrix : Default
Format settings, GOP : M=3, N=10
Duration : 39mn 0s
Bit rate mode : Variable
Bit rate : 5 753 Kbps
Nominal bit rate : 9 000 Kbps
Width : 720 pixels
Height : 576 pixels
Display aspect ratio : 4:3
Frame rate : 25.000 fps
Standard : PAL
Color space : YUV
Chroma subsampling : 4:2:0
Bit depth : 8 bits
Scan type : Interlaced
Scan order : Top Field First
Compression mode : Lossy
Bits/(Pixel*Frame) : 0.555
Stream size : 1.57 GiB (94%)
Writing library : ArcSoft MPEG-2 PAL

Audio
ID : 192 (0xC0)
Format : MPEG Audio
Format version : Version 1
Format profile : Layer 2
Duration : 39mn 0s
Bit rate mode : Constant
Bit rate : 224 Kbps
Channel(s) : 2 channels
Sampling rate : 48.0 KHz
Compression mode : Lossy
Delay relative to video : -13ms
Stream size : 62.5 MiB (4%)

Odpowiedz
#10
Przeprowadź mały eksperyment, tutaj masz link do potrzebnych narzędzi. Wszystkie pliki przekonwertuj na PAL DV widescreen z szablonu Vegasa. Zobacz czy to rozwiązuje problem.
Odpowiedz



   


Skocz do:


Użytkownicy przeglądający ten wątek: 1 gości