przerywanie video po renderingu filmu
#1
Witam, obecnie jestem w trakcie montowania klipu do kawałka mojego kolegi. Borykam się z problemem, który załączam w poniższym video. Otóż obraz miga tak po wyrenderowaniu jak i przed w trakcie podglądu video podczas jego tworzenia. Nigdzie nie mogłem znaleźć rozwiazania tego problemu, dlatego zakładam temat i z góry dziękuje za pomoc. 



Moja wersja vegasa to pro 12.0 (Build 770)

ustawienia projektu:
http://scr.hu/7wpf/p2yeo



zakładki customize template: 
http://scr.hu/7wpf/mga9n
http://scr.hu/7wpf/dczcc
http://scr.hu/7wpf/jn5l6
http://scr.hu/7wpf/87xwm

mediainfo: 
General
Complete name               : C:\Users\Wiktor\Documents\obe - venom.mp4
Format                      : MPEG-4
Format profile              : Base Media / Version 2
Codec ID                    : mp42 (mp42/isom)
File size                   : 203 MiB
Duration                    : 2 min
Overall bit rate mode       : Variable
Overall bit rate            : 10.9 Mb/s
Encoded date                : UTC 2018-03-01 12:00:03
Tagged date                 : UTC 2018-03-01 12:00:03

Video
ID                          : 2
Format                      : AVC
Format/Info                 : Advanced Video Codec
Format profile              : High@L4
Format settings, CABAC      : Yes
Format settings, ReFrames   : 3 frames
Format settings, GOP        : M=4, N=15
Codec ID                    : avc1
Codec ID/Info               : Advanced Video Coding
Duration                    : 2 min
Bit rate mode               : Variable
Bit rate                    : 10.5 Mb/s
Maximum bit rate            : 12.5 Mb/s
Width                       : 1 920 pixels
Height                      : 1 080 pixels
Display aspect ratio        : 16:9
Frame rate mode             : Constant
Frame rate                  : 30.000 FPS
Standard                    : NTSC
Color space                 : YUV
Chroma subsampling          : 4:2:0
Bit depth                   : 8 bits
Scan type                   : Progressive
Bits/(Pixel*Frame)          : 0.169
Stream size                 : 196 MiB (96%)
Language                    : English
Encoded date                : UTC 2018-03-01 12:00:03
Tagged date                 : UTC 2018-03-01 12:00:03
Color range                 : Limited
Color primaries             : BT.709
Transfer characteristics    : BT.709
Matrix coefficients         : BT.709

Audio
ID                          : 1
Format                      : AAC
Format/Info                 : Advanced Audio Codec
Format profile              : LC
Codec ID                    : 40
Duration                    : 2 min
Bit rate mode               : Constant
Bit rate                    : 384 kb/s
Channel(s)                  :  channel0
Channel(s)_Original         : 2 channels
Channel positions           : Front: L R
Sampling rate               : 48.0 kHz
Frame rate                  : 46.875 FPS (1024 spf)
Compression mode            : Lossy
Stream size                 : 7.18 MiB (4%)
Language                    : English
Encoded date                : UTC 2018-03-01 12:00:03
Tagged date                 : UTC 2018-03-01 12:00:03
Odpowiedz
#2
bump, nadal mam ten problem jest ktos w stanie pomóc?
Odpowiedz
#3
Nie widać najważniejszych screenów. Projekt + ustawienia renderowania zakładka video.

Ale na moje oko, problem może być z:
- karta graficzna (trzeba wypróbować wyłączenie akceleracji w ustawieniach vegasa -> options > preferences > video > GPU acceleration;
- przekodować surówkę do czegoś edycyjnego.
Odpowiedz
#4
wyłączenie akceleracji nie pomoglo :/
chodzi o te zakladki?
http://scr.hu/7wpf/20j26
http://scr.hu/7wpf/l3cl4
Odpowiedz
#5
Skąd taki klatkaż projektu:30.012?
Renderujesz z 60klatkami?
Dlaczego utrudniasz programowi całą pracę?

Projekt ustawiamy wg plików źródłowych. Jeśli mamy jakieś gówno z telefonu, co zwykle ma zmienny klatkaż, to musimy zastosować jakiś standard (PAL lub NTSC). Dla PAL - 25klatek na sekundę.
Jako, że era kineskopów minęła, to warto ustawić progressive - 25klatek.
I tak samo renderować.

Jeśli koniecznie chcesz mieć 30 klatek, to zarówno projekt, jak i rendering musisz tak ustawić.

Każdy klip video, w którym masz inny klatkaż niż projekt (lub zmienny klatkaż), powinieneś przestawić "disable resample", żeby program na siłę nie mieszał sąsiednich klatek. Bo to robota nikomu do niczego nie potrzebna w 99.99% przypadków.
Odpowiedz
#6
dzięki wielkie za pomoc, zrobiłem jak mówiłeś i do tego jeszcze odkurzyłem kompa i wszystko jak na razie smiga jak powinno.
Odpowiedz



   


Podobne wątki
Wątek: Autor Odpowiedzi: Wyświetleń: Ostatni post
  Zacinanie filmu po renderingu Tobik 19 4,399 09-08-2015, 16:04
Ostatni post: Tobik
  Artefakty i haczenie po renderingu do Pal DVD Video Stream Skrzypiec 7 2,638 12-22-2014, 19:18
Ostatni post: Skrzypiec
  Brak płynności filmu po renderingu SV10 Shekler52 8 2,881 06-24-2013, 16:38
Ostatni post: mateuszszar
  Pomoc w renderingu filmu glasiell29 1 1,466 07-31-2010, 22:02
Ostatni post: tidzu

Skocz do:


Użytkownicy przeglądający ten wątek: 1 gości