Ustawienia renderowania z Sony HX400V
#1
Proszę o pomoc w doborze ustawień renderowania

Sony Vegas 13 build 453

Plik z aparatu Sony HX400V: 1920x1080x12; 50klatek progresywnie; AVC; szczegóły i plik poniżej. 

Chcę otrzymać plik o niezmienionej jakości (max. na ile to możliwe 1920x1080, 50p, bitrate) w formacie: mts, m2ts, MP4, do odtwarzania z dysku lub pendrive przez USB na TV Sony

Dopasowanie automatyczne Sony Vegas proponuje:
XAVC S Long 1920x1080-50p
Audio: 48 000 Hz; 16 b (MAC); Stereo; PCM
Wideo: 50 kl./s; 1920x1080 Progresywne; XAVC S
Współczynnik proporcji pikseli: 1,000

wszystko jest OK z wyjątkiem rozmiaru pliku: jest 2x większy od oryginału oraz TV "nie wyrabia się" przycina się (przez TV Box, komputer jest OK)

Robiłem kilkanaście renderów z różnymi profilami i zmianą ustawień profili ale nie wszystkie pozwalają wybrać 50p lub format nie pozwala na odtworzenie w TV lub obraz jest niepłynny, gorszej jakości.
Możliwości opcji są niezliczone, już pogubiłem się z jakimi parametrami renderowałem różne profile dlatego proszę o pomoc.

Link do pliku (onedrive):
https://1drv.ms/v/s!AoU4yAJkQFLSg8ZSslIWTxJkFvLS4g


Plik wejściowy:

General
ID                          : 0 (0x0)
Complete name               : C:\Users\Bogdan\Desktop\20180728121753.MTS
Format                      : BDAV
Format/Info                 : Blu-ray Video
File size                   : 61.9 MiB
Duration                    : 19 s 615 ms
Overall bit rate mode       : Variable
Overall bit rate            : 26.4 Mb/s
Maximum Overall bit rate    : 28.0 Mb/s
Recorded date               : 2018-07-28 12:17:53+02:00
Writing application         : Sony DSC-HX400V

Video
ID                          : 4113 (0x1011)
Menu ID                     : 1 (0x1)
Format                      : AVC
Format/Info                 : Advanced Video Codec
Format profile              : High@L4.2
Format settings             : CABAC / 2 Ref Frames
Format settings, CABAC      : Yes
Format settings, ReFrames   : 2 frames
Format settings, GOP        : M=1, N=12
Codec ID                    : 27
Duration                    : 19 s 680 ms
Bit rate mode               : Variable
Bit rate                    : 25.1 Mb/s
Maximum bit rate            : 26.0 Mb/s
Width                       : 1 920 pixels
Height                      : 1 080 pixels
Display aspect ratio        : 16:9
Frame rate                  : 50.000 FPS
Color space                 : YUV
Chroma subsampling          : 4:2:0
Bit depth                   : 8 bits
Scan type                   : Progressive
Bits/(Pixel*Frame)          : 0.242
Stream size                 : 58.9 MiB (95%)
IrisFNumber                 : 2.800000

Audio
ID                          : 4352 (0x1100)
Menu ID                     : 1 (0x1)
Format                      : AC-3
Format/Info                 : Audio Coding 3
Commercial name             : Dolby Digital
Codec ID                    : 129
Duration                    : 19 s 680 ms
Bit rate mode               : Constant
Bit rate                    : 256 kb/s
Channel(s)                  : 2 channels
Channel layout              : L R
Sampling rate               : 48.0 kHz
Frame rate                  : 31.250 FPS (1536 SPF)
Bit depth                   : 16 bits
Compression mode            : Lossy
Stream size                 : 615 KiB (1%)
Service kind                : Complete Main

Text
ID                          : 4608 (0x1200)
Menu ID                     : 1 (0x1)
Format                      : PGS
Codec ID                    : 144
Duration                    : 19 s 135 ms

Link do pliku (onedrive):
https://1drv.ms/v/s!AoU4yAJkQFLSg8ZSslIWTxJkFvLS4g
Odpowiedz



   


Podobne wątki
Wątek: Autor Odpowiedzi: Wyświetleń: Ostatni post
  Sony Vegas 13 - Jakość renderowania sleazy 15 7,064 01-20-2018, 22:27
Ostatni post: mateuszszar
  Co oznaczają te ustawienia w Sony Vegas Pro 13 ? Alfa_Centauri 0 317 08-12-2017, 21:07
Ostatni post: Alfa_Centauri
  Ustawienia projektu a ustawienia renderowania fobo 4 2,709 10-20-2015, 21:48
Ostatni post: mateuszszar
  Ustawienia renderowania na YT ZiggyShoke 5 2,051 01-22-2015, 20:00
Ostatni post: Kargan
  Ustawienia renderowania dla clipów z GoPro Patrico 17 14,976 09-02-2014, 22:37
Ostatni post: efix
  Sony Vegas jak połączyć ucięte klipy w całość bez renderowania ? Roland 4 4,583 01-08-2014, 2:43
Ostatni post: Bunch

Skocz do:


Użytkownicy przeglądający ten wątek: 1 gości