Sony Dcr - hc17e Jakość ? Firewire ? Dylemat !
#11
Jakaś kamera sony, którą miałem w rękach nie chciała puścić po usb więcej niż obraz 320x240.
Napisz, w jakiej rozdzielczości ci teraz zgrywa kamera.
Odpowiedz
#12
Przejrzałem manual od tej kamery (znajdziesz na stronie Sony, nawet po polsku) - niestety za wiele tam nie ma, aczkolwiek znalazło się zdanie, które mówi dosyć enigmatycznie, że ściągając film przez firewire osiągniesz lepszą jakość. Ile lepszą nie wiem, ale generalnie przez firewire masz najlepszą możliwą - to tylko transmisja, nic nie jest przekodowywane i przerabiane po drodze.
Być może jest tak, że przez USB nie leci pełen PAL - ta kamera jako jedna z nielicznych oferuje streaming po USB, czyli możesz ją zastosować jako np. kamerę do Skype. Ale praktyka podpowiada mi, że wtedy zwykle obraz jest czy to 320x240, czy 640x480 i bez przeplotu itp. Słowem - sugeruję inwestycję w kartę firewire - myślę, że spokojnie możesz kupić jakiś używany Texas Instruments za 20-30 zł albo jakiś nowy 35-150 zł. Do tego kabel i jazda.
W każdym razie z kamery dostaniesz obraz 720x576, 25 fps, interlaced, kodek DV.
Sprawdź po prostu co mówi o filmie zrzuconym przez USB Vegas (wklej tu mediainfo o pliku).

Maciej Lewandowski - efix.pl
Odpowiedz
#13
Serdecznie dziękuję za pomoc.

Info o pliku
General
Complete name : I:\(Unknown) - Clip 006.avi
Format : AVI
Format/Info : Audio Video Interleave
File size : 137 MiB
Duration : 24s 500ms
Overall bit rate : 46.9 Mbps

Video
ID : 0
Format : RGB
Codec ID : 0x00000000
Codec ID/Info : Basic Windows bitmap format. 1, 4 and 8 bpp versions are palettised. 16, 24 and 32bpp contain raw RGB samples
Duration : 24s 124ms
Bit rate : 46.1 Mbps
Width : 320 pixels
Height : 240 pixels
Display aspect ratio : 4:3
Frame rate : 29.970 fps
Bit depth : 8 bits
Bits/(Pixel*Frame) : 20.017
Stream size : 132 MiB (97%)

Audio
ID : 1
Format : PCM
Format settings, Endianness : Little
Format settings, Sign : Signed
Codec ID : 1
Codec ID/Hint : Microsoft
Duration : 24s 500ms
Bit rate mode : Constant
Bit rate : 1 411.2 Kbps
Channel(s) : 2 channels
Sampling rate : 44.1 KHz
Bit depth : 16 bits
Stream size : 4.12 MiB (3%)
Interleave, duration : 492 ms (14.76 video frames)



takie coś może być http://allegro.pl/0704-kontroler-portu-f...85991.html ?
Odpowiedz
#14
No i wszystko jasne, po usb wciągasz plik marnej jakości, tak jak się spodziewałem, należy importować tylko przez firewire, aby plik był w dv, czyli max jakości jaką można uzyskać z tej kamerki. Nailepsze kontrolery są na chipsetah Texas Instruments. Na chipsecie via, wogóle bym nie dotykał. Ale są dużo droższe
link
Odpowiedz
#15
Czyli rozumiem że różnica będzie znaczna ?
Odpowiedz
#16
(03-31-2012, 15:41)JJaMMaLL napisał(a):  Czyli rozumiem że różnica będzie znaczna ?
Między usb, a firewire kolosalna.
Między podłym kontrolerem, a dobrym jeśli ci nie pogubi tani kontroler klatek to różnica żadna i dochodzi do tego jeszcze że z tanim kontrolerem mogą być kłopoty przy jego wykrywaniu przez system i kamerkę
Odpowiedz
#17
Jakie firmy są dobre kontrolery? jak już inwestować to w coś co zda egzamin
Odpowiedz
#18
Podałem ci link dwa posty wcześniej
Odpowiedz
#19
Ok dziekuje wszystkim za odp, bardzo mi pomogliście, Tego linka nie dopatrzyłem.
Odpowiedz



   


Podobne wątki
Wątek: Autor Odpowiedzi: Wyświetleń: Ostatni post
  Sony Vegas 13 - Jakość renderowania sleazy 15 6,962 01-20-2018, 22:27
Ostatni post: mateuszszar
  Kamera HD - Dylemat - Proszę o Radę JJaMMaLL 6 2,142 11-13-2012, 13:25
Ostatni post: efix
  Problem FireWire. Co Jest Przyczyną ? JJaMMaLL 21 8,546 04-18-2012, 22:29
Ostatni post: Pinto
  Sony Vegas i zła jakość filmów kamil91 17 9,519 10-06-2011, 20:37
Ostatni post: kamil91

Skocz do:


Użytkownicy przeglądający ten wątek: 1 gości