Problemy z renderowaniem
(07-05-2016, 22:59)mateuszszar napisał(a):  1080/50p

Najlepiej użyj opcji "match media", dzięki której projekt będzie dopasowany do pliku wsadowego.
Vegas Pro 13 z automatu pyta, czy dopasować projekt do wrzucanego pliku -> wystarczy się zgodzić.

Później przy renderze wystarczy wprowadzić te same parametry (rozdzielczość, klatkaż, pixel aspect ratio). Tych parametrów nie możesz dowolnie mieszać.

rozumiem tylko ja mam vegasa 11 , zawsze ustawiałem tak jak do tej pory , gdybyś mógł dokładnie mi opisać gdzie co wprowadzić w projekcie i który render z listy wybrać bo jest ich trochę , sorki ale aż tak się na tym nie znam
Odpowiedz
Dlatego właśnie zawsze proszę, i nawet zrobiłem specjalny temat, w którym napisałem CO NALEŻY PODAĆ podczas zakładania tematu... żeby później nie powtarzać. Pokaż chociaż minimum wysiłku i odnajdź ten temat. Później uzupełnij brakujące info.
Jak to napiszesz, to odpiszę jak ustawić i jak renderować. W sumie już napisałem (tak samo, jak plik wsadowy z kamery)....

Ps. Przy odpowiedzi na powyższy post, nie musisz cytować. Wiadomo, czego tyczy się odpowiedź (jest po prostu jeden post wyżej).
Odpowiedz
Vegas pro 11 Build 683 , 64 bit

Ustawienia Projektu  załączniku

w tym programie media info nie wiem co mam wybrać


Załączone pliki Miniatury
           
Odpowiedz
Wrzucasz do MediaInfo plik wideo z kamery, i powinno się wyświetlić:

Cytat:ormat : MPEG-4
Format profile : Base Media / Version 2
Codec ID : mp42 (mp42/isom/avc1)
File size : 48.1 MiB
Duration : 59s 51ms
Overall bit rate mode : Variable
Overall bit rate : 6 838 Kbps
Writing application : TMPGEnc Video Mastering Works 5 Version. 5.5.2.107

Video
ID : 2
Format : AVC
Format/Info : Advanced Video Codec
Format profile : High@L4.1
Format settings, CABAC : Yes
Format settings, ReFrames : 4 frames
Codec ID : avc1
Codec ID/Info : Advanced Video Coding
Duration : 59s 40ms
Bit rate mode : Variable
Bit rate : 6 500 Kbps
Maximum bit rate : 8 000 Kbps
Width : 1 920 pixels
Height : 1 080 pixels
Display aspect ratio : 16:9
Frame rate mode : Constant
Frame rate : 25.000 fps
Standard : Component
Color space : YUV
Chroma subsampling : 4:2:0
Bit depth : 8 bits
Scan type : Progressive
Bits/(Pixel*Frame) : 0.125
Stream size : 45.9 MiB (95%)

Audio
ID : 1
Format : AAC
Format/Info : Advanced Audio Codec
Format profile : LC
Codec ID : 40
Duration : 59s 51ms
Bit rate mode : Variable
Bit rate : 317 Kbps
Maximum bit rate : 576 Kbps
Channel(s) : 2 channels
Channel positions : Front: L R
Sampling rate : 48.0 KHz
Frame rate : 46.875 fps (1024 spf)
Compression mode : Lossy
Stream size : 2.23 MiB (5%)
Odpowiedz
po wrzuceniu pliku mam takie info jak w załączniku


Załączone pliki Miniatury
   
Odpowiedz
A w drugiej zakładce u góry, która nazywa się "widok"?
Odpowiedz
chyba o to chodzi


Ogólne

ID                              : 0
Pełna ścieżka                   : C:\Users\Admin\Desktop\00041.MTS
Format                          : BDAV
Format/Informacja               : Blu-ray Video
Rozmiar pliku                   : 11,5 MB
Czas trwania                    : 4s 368ms
Całkowita przepływność bitów    : 22,1 Mb/s
Maksymalna całkowita przepływnoś: 28,0 Mb/s

Wideo
ID                              : 4113 (0x1011)
ID menu                         : 1 (0x1)
Format                          : AVC
Format/Informacja               : Advanced Video Codec
Profil formatu                  : High@L4.2
Ustawienia formatu, CABAC       : Tak
Ustawienia formatu, poklatkowy  : 2 klatki
Czas trwania                    : 3s 820ms
Przepływność bitów              : 20,8 Mb/s
Szerokość                       : 1.920 pikseli
Wysokość                        : 1.080 pikseli
Proporcje obrazu                : 16:9
Szybkość wyświetlania klatek    : 50,000 kl/s
Rozdzielczość                   : 24 bity
Kolorymetria                    : 4:2:0
Rodzaj skanu                    : Progresywny
bity/(piksele*ramki)            : 0.201
Rozmiar strumienia              : 9,49 MB (82%)

Audio
ID                              : 4352 (0x1100)
ID menu                         : 1 (0x1)
Format                          : AC-3
Format/Informacja               : Audio Coding 3
Czas trwania                    : 3s 840ms
Rodzaj przepływności            : Stała
Przepływność bitów              : 384 Kb/s
Kanały                          : 6 kanałów
Rozmieszczenie kanałów          : Front: L C R, Surround: L R, LFE
Częstotliwość próbkowania       : 48,0 KHz
Rozmiar strumienia              : 180 KB (2%)

Tekst
ID                              : 4608 (0x1200)
ID menu                         : 1 (0x1)
Format                          : PGS
Czas trwania                    : 3s 356ms
Odpowiedz
TAK :)

Więc projekt ustaw:
1920x1080
field order: None (progressive scan)
Pixel aspect ratio: 1 (square)
Frame rate: 50 klatek lub 25 klatek.


Jeśli zdecydujesz się na wersję 25p, musisz dodatkowo dla każdego pliku video (event video) kliknąć prawym przyciskiem myszy i w PROPERTIES zaznaczyć "Disable resample" (można również PPM > Switches > Disable resample). Można sobie zrobić skrót klawiaturowy do tego, albo nawet skorzystać z skryptu, który to hurtowo zrobi: http://sonyvegas.info/thread-5545-post-6...l#pid60359

Później renderujesz:
Sony AVC] albo MediaConcept AVC (w skrócie - pierwszy, jak masz procesor obsługujący QuickSync).
Ja polecam MediaConcept AVC - trzeba przerobić template Internet HD 1080:
Zmieniasz profil na HIGH
Zmieniasz klatkaż na 25p
variable bit rate: zaznaczasz Two-pass


Dla 50p będzie podobnie (nie trzeba klikać DISABLE RESAMPLE), i trzeba ręcznie wpisać 50 w polu framerate (albo uzyć SONY AVC)
Pamiętaj o zmianie profilu na wysoki! I o bitrate w okolicach 10Mbps. Jeśli na YouTube, to możesz dać równo 8Mbps.
Odpowiedz
zrobiłem tak jak mówisz i mam błąd
zrzut ekranu w załączniku


Załączone pliki Miniatury
   
Odpowiedz
Którą wersję wybrałeś? Sprawdź jeszcze 25p + disable resample.
Odpowiedz



   


Skocz do:


Użytkownicy przeglądający ten wątek: 1 gości