Płynność/ostrość ruchu???
#11
no iiiiiiii coś więcej, gdzie w vegasie ustawia się ten przeplot?????????????
Odpowiedz
#12
No w projekcie - to raz, przy renderze - to dwa. Jak kręcisz 1280x720 to o ile pamietam to jest obraz bez przeplotu, wiec go nigdzie nie ustawiaj a w swish nie włączaj usuwania.
Odpowiedz
#13
no dobrze, ale tak jak wspomniałem wcześniej przejrzałem wszystko jeszcze raz i wyszło mi, że po wyrenderowaniu filmu mi się to dzieje, wcześniej nawet w okienku podglądu w vegasie, przy cięciu na drobne widzę, że jest wszystko ok, więc w czasie renderowania mam chyba gdzieś zaznaczonego ptaszka tylko jest pytanie where. Tak jak wspomniałem wcześniej mój angielski jest uczony na małpę więc proszę powiedzcie mi tak trochę dokładniej bo słowa deinterlance nie mogę znaleźć.
Odpowiedz
#14
Renderując musisz mięć ustawione w zakładce video field order musisz mieć ustawione na Progessive (None)
Odpowiedz
#15
Chyba wiem o co Ci chodzi, przynajmniej tak mi się wydaje.
Jak obraz jest skierowany w jeden punkt jest ok (nie ma szybkiego ruchu w obrazie) natomiast jak jest to robi się jakiś "cień". W oryginale jest wszystko ok, dzieje się tak po renderingu.

klatka oryginału (AVCHD lite 50p)
[Obrazek: 911283337025.jpg]

po renderingu (mp4 25p )
[Obrazek: 911283336916.jpg]

Czy ktoś wie dlaczego się tak dzieje?
Wiem że jak dam rendering na 50p to jest ok, ale chce renderować 25p i jest właśnie ten problem.(wtedy vegas Movie Studio HD 10 przy renderingu korzysta z Nvidia CUDA i rendering filmu 2h trwa osiem godzin a nie 30h) jak daje 50p to wyskakuje błąd podczas startu renderingu. CUDA działają jak daje Sony AVC, a zmiana klatek powoduje błąd. Idzie to jakoś poustawiać żeby korzystać z CUDA no i renderować w 25p?
Odpowiedz
#16
To wygląda jak włączone 'blending fields'. Niestety panowie, nauczcie sie podawac:
1) informacje o materiale wejściowym (rozdzielczość, fps, format wideo)
2) ustawienia projektu
3) ustawienia renderingu.

Na podstawie opisu i fotki trudno czasem coś zdiagnozować.
Odpowiedz
#17
Plik źródłowy
General
ID : 0
Complete name : C:\20100901_113452.m2ts
Format : BDAV
Format/Info : Blu-ray Video
File size : 45.6 MiB
Duration : 24s 890ms
Overall bit rate : 15.3 Mbps
Maximum Overall bit rate : 18.0 Mbps

Video
ID : 4113 (0x1011)
Menu ID : 1 (0x1)
Format : AVC
Format/Info : Advanced Video Codec
Format profile : High@L4.0
Format settings, CABAC : No
Format settings, ReFrames : 1 frame
Frame mode : Frame doubling
Duration : 24s 920ms
Bit rate mode : Variable
Bit rate : 14.5 Mbps
Maximum bit rate : 16.6 Mbps
Width : 1 280 pixels
Height : 720 pixels
Display aspect ratio : 16:9
Frame rate : 25.000 fps
Original frame rate : 50.000 fps
Standard : NTSC
Color space : YUV
Chroma subsampling : 4:2:0
Bit depth : 8 bits
Scan type : Progressive
Bits/(Pixel*Frame) : 0.631
Stream size : 43.2 MiB (95%)

Audio
ID : 4352 (0x1100)
Menu ID : 1 (0x1)
Format : AC-3
Format/Info : Audio Coding 3
Mode extension : CM (complete main)
Duration : 24s 960ms
Bit rate mode : Constant
Bit rate : 192 Kbps
Channel(s) : 2 channels
Channel positions : Front: L R
Sampling rate : 48.0 KHz
Bit depth : 16 bits
Stream size : 585 KiB (1%)

Odpowiedz
#18
ok, aż tak szczegółowo nie chciałem, ważne informacje to w tym momencie
Width : 1 280 pixels
Height : 720 pixels
Display aspect ratio : 16:9
Frame rate : 25.000 fps
Original frame rate : 50.000 fps

Ale teraz powiedz majster co masz w projekcie i co w renderze.
W projekcie interesują mnie zakładki "video", zrób screenshoty.
Odpowiedz
#19
ustawione 25p już widać "cienie, rozmazanie"
[Obrazek: 911283340264.jpg]

ustawione 50p jak żródło
[Obrazek: 911283340314.jpg]

rendering 25p renderuje ale są "cienie"
[Obrazek: 911283340349.jpg]

50p nie renderuje
[Obrazek: 911283340618.jpg]

Renderuje 50p ale w mainconcept bez CUDA
Odpowiedz
#20
Niestety, Vegas 9 póki co nie oficjalnie nie renderuje do 720p 50fps. Jak projekt ustawisz na 50fps to wiadomo, że nie będziesz widział duchów, jak na 25 to wiadomo, że będziesz, bo program wyświetla dwie klatki na raz. 50fps to nie są powszechnie stosowane rozdzielczości telewizyjne i nie wszystko to potrafi odtworzyć.
Pozostaje Ci więc renderować bez CUDA do 50fps, albo przekonwertować z 50 do 25, ale na razie nie wiem jak, by jak najmniej stracić na jakości. Na oko najlepsza konwersja wyszłaby przerabiając na 50i, zakładając, że chcesz to oglądać na telewizorze HD a nie laptopie. Będziesz miał bardzo płynny ładny ruch. Daj mi trochę czasu.
Odpowiedz



   


Podobne wątki
Wątek: Autor Odpowiedzi: Wyświetleń: Ostatni post
  Vegas 11 Pro - frame blending, płynność przy konwersji z 60fps kamild1996 2 1,699 10-29-2012, 18:27
Ostatni post: kamild1996

Skocz do:


Użytkownicy przeglądający ten wątek: 1 gości