Nawiedzające mnie duchy...
#1
Ok , a wiec...
Nagrałem filmy w HD. Wszystko pięknie spoko, włączyłęm dissemble resable, ustawilem przeplot none progressive, raz zapisalem 25 klatek, raz zapisałem 30 klatke, innym razem 50.... i za każdym razem jest to samo. Dane projektu pojawiły sie automatycznie w sony vegas ale wg wskazowek ustawilem przeplot itd. 
Czytałem forum. Wydaje mi sie ze przesledziłem wiekoszsc mozliwych problemow. Probuje wyrenderowac krotki odcinek filmu ale duchy pojawaiaj sie za kazdym razem. Kodeki zaktualizowałem wg mnie prawidłowo. Nie wiem co jest grane. 

Oryginalny plik: 
https://imageshack.us/i/pnOjAdXkj
Po renderze:
https://imageshack.us/i/pm1nkmHrj

Dane pliku:

Sony Vegas pro 11.
build 371
64 bit

General
ID :
0 (0x0)

Format :
BDAV
Format/Info :
Blu-ray Video
File size :
50.2 MiB
Duration :
35 s 912 ms
Overall bit rate mode :
Variable
Overall bit rate :
11.7 Mb/s
Maximum Overall bit rate :
18.0 Mb/s

Video
ID :
4113 (0x1011)
Menu ID :
1 (0x1)
Format :
AVC
Format/Info :
Advanced Video Codec
Format profile :
High@L4
Format settings, CABAC :
Yes
Format settings, RefFrames :
2 frames
Format settings, GOP :
M=2, N=13
Codec ID :
27
Duration :
35 s 800 ms
Bit rate mode :
Variable
Bit rate :
11.0 Mb/s
Maximum bit rate :
16.0 Mb/s
Width :
1 440 pixels
Height :
1 080 pixels
Display aspect ratio :
16:9
Frame rate :
25.000 FPS
Color space :
YUV
Chroma subsampling :
4:2:0
Bit depth :
8 bits
Scan type :
Interlaced
Scan type, store method :
Separated fields
Scan order :
Top Field First
Bits/(Pixel*Frame) :
0.282
Stream size :
46.9 MiB (93%)

Audio
ID :
4352 (0x1100)
Menu ID :
1 (0x1)
Format :
AC-3
Format/Info :
Audio Coding 3
Format settings, Endianness :
Big
Codec ID :
129
Duration :
35 s 904 ms
Bit rate mode :
Constant
Bit rate :
256 kb/s
Channel(s) :
2 channels
Channel positions :
Front: L R
Sampling rate :
48.0 kHz
Frame rate :
31.250 FPS (1536 SPF)
Bit depth :
16 bits
Compression mode :
Lossy
Delay relative to video :
-80 ms
Stream size :
1.10 MiB (2%)
Service kind :
Complete Main

Text
ID :
4608 (0x1200)
Menu ID :
1 (0x1)
Format :
PGS
Codec ID :
144
Duration :
35 s 295 ms
Delay relative to video :
-80 ms

Dane projektu:

https://imageshack.us/i/pnRqWC3bj

Dane renderu:
https://imageshack.us/i/poiH2qtrj

Dane renderu wyszły automatycznie. Ale wydaje mi sie ze wszystkie sa prawidłowe. Zgadzaja sie z oryginalem filmu. 
Kiedy wyłącze w properties projektu none progressive scan pojawia sie wiecej opcji zapisu przy renderze. Ale i tak w każdej ciągle nawiedza mnie duch... 

Mam nadzieje ze teraz przedstawiłem wszystko prawidłowo. 

Pzdr.
Odpowiedz
#2
Nie są. Automatycznie nic nie wchodzi samo.
Surówka jest HDV? Jeśli tak ,to musisz ustawic projekt tak samo, albo 1920x1080 z pixel aspect ratio 1 i zalecane jest usunięcie przeplotu.
Odpowiedz
#3
Zrobilem szybka probe. Wydaje sie ze faktycznie pomoglo. Sprawdze dokladnie jutro jak zrenderuje caly film ale chyba bedzie dobrze:) chyba sie za duzo naogladalem tutoriali jaka jest najlepsza jakosc itd do renderowania i calkiem pogmatwalo sie... ale bede dziekowal jak ukoncze calosc. :)
Odpowiedz
#4
Jeśli ten odczyt z MediaInfo, to plik z kamery - to masz na pewno HDV.
Teraz pytanie, co chcesz zrobić z gotowym filmem? Zapisać na DVD, BluRay? Czy może plik na pendrive lub internet (youtube)?
Płyty wymagają przeplotu (chociaż DVD niekoniecznie).

Druga sprawa - zaktualizuj vegasa, bo masz starą wersję jedenastki. Ostatni numerek to build 701.

Ustaw projekt Full HD - czyli 1920 x 1080, ale bez przeplotu (czyli progressive). 25klatek oczywiście.
Wybierz metodę usunięcia przeplotu: "interpolate fields".

I tak samo renderuj -> 1920x1080@25p.

Ewentualnie możesz renderować do HDV. Ale to lepsze wyjście TYLKO jak będziesz chciał robić DVD. Bo nawet renderując do BluRay, wolałbym przejść na pełne HD.
Odpowiedz
#5
Dziekuje.
Poki co film dziala! Duchy zniknely! Dziekuje Wam bardzo!

Vegasa na pewno zaktualizuje i popracuje jeszcze nad renderem do mp4 bo plik HDV zapisuje sie w formacie mt2s ktorego nie odtwarza np. telefon ani mac. Material ma byc na youtube.
Odpowiedz
#6
dlatego warto renderować o Sony AVC lub MainConcept AVC - wybierając szablon Internet 1920 x 1080.
Następnie musisz zmienić profil na high
klatkaż oczywiście 25 progressive
VBR (zmienny bitrate)
np. 10Mbps średni, 15max

dźwięk 320kbps

zaznaczona opcja "enable progressive download".

Jeśli masz kartę która daje przyspieszenie podczas renderowania (lub procesor z funkcją QuickSync - czyli z zintegrowaną kartą graficzną), możesz użyć akceleracji kodowania. QuickSync da bardzo dobry efekt (Sony AVC), natomiast z kartą nVidia (CUDA) musisz zrobić test, bo nie zawsze daje dobry efekt.
Odpowiedz
#7
Jest ciagle problem... Stostuje się do Twojej rady ale probuje zmienic w opcjach rozszerzenie pliku na mp4. Niestety gdy to robie pojawia sie znow duch... Zmieniam klatkarz i inne mozliwe opcje ale wciaz jest to samo. A jak chce przekonwertowac plik m2ts. to pojawia sie przeplot że hoho...
Odpowiedz
#8
Daj screeny projektu i renderu bo wydaje mi się że coś pominąłeś z moich rad.
Odpowiedz
#9
Jakie rozszerzenie? Renderujac do sony avc lub mailconcept avc masz od razu. Mp4
Pamietales o ustawieniu projektu progressive? Oraz metody deinterlace -> intrpolate fields?
Odpowiedz
#10
(09-03-2017, 10:37)mateuszszar napisał(a):  Jakie rozszerzenie? Renderujac do sony avc lub mailconcept avc masz od razu. Mp4
Pamietales o ustawieniu projektu progressive? Oraz metody deinterlace -> intrpolate fields?

Faktycznie ominalem ostatnia opcje. Obraz dziala w mp4. Ale... teraz dzwiek przestal dzialac prawidlowo po zrenderowaniu. Zamiast muzyki slychac jakby zdarta plyte przez caly czas trwania. No to kowljen poszukiwania przede mna... co ja zrobilem nie tak.
Odpowiedz



   


Skocz do:


Użytkownicy przeglądający ten wątek: 1 gości