Jak renderować filmiki na YT.
Widzę, że w tym co wrzuciłeś jakość jest ok.

Ale co z tym testem, mógłbyś dostarczyć jakiś materiał testowy? Dla mnie samego testowanie zajmie sporo czasu, nie ze względu na czas renderowania w Vegasie, a ze względu na internet, który do szybkich nie należy.
Odpowiedz
Zrobię w weekend, muszę wymyślić coś trudnego dla kompresorów.

Maciej Lewandowski - efix.pl
Odpowiedz
Ok. Jak już coś wymyślisz to zrobimy dodatkowy temat, bo ten już się zabałaganił. Liczę na kilku chętnych.
Odpowiedz
Cytat:Rozdzielczość w obu przypadkach jest trochę nie na miejscu. Nie twierdzę, że przez to Mp4 wypada gorzej. Twierdzę, że oba materiały nie wyglądają na dobrej jakości.

Ale Krasux, o czym Ty tutaj piszesz? Zadaniem było porównać który lepszy, który materiał ładniejszy. Więc wybierz "mniejsze zło" a nie rozmawiaj o tym, że w zasadzie oba złe. Tak nie jest. Jak na dłoni widać że WMV jest ładniejsza. A ja to wszystko sprawdziłem w odniesieniu do tutoriala Tidza, który mówił że tak jest najlepiej i najładniej, i że w ogóle format do renderingu najlepszy. A tak - jak widzimy - nie jest. I co z tym fantem zrobicie? Może sam Tidzu się wypowiesz na ten temat?
Bitrate był mniejszy o 500 faktycznie. Ale i tak jakość była znacznie gorsza. 500 w tym wypadku nic by nie dało. Chcesz to sprawdzić na własną rękę?
[Obrazek: n13.gif]
Odpowiedz
Ile razy mam Ci jeszcze to tłumaczyć? Każdy format ma swoje przeznaczenie, w jednym przypadku sprawdzi się WMV, w drugim MP4. Korzystaj z czego chcesz, ale nie wmawiaj innym, że WMV jest lepsze niż MP4, bo jeszcze ktoś w to uwierzy i zacznie konwertować footage do WMV i na nim pracować. Napisałem Ci już gdzie się sprawdzi WMV.
Odpowiedz
Dla mnie najlepszym "przeznaczeniem" jest najlepsza jakość obrazu przy jednoczesnej małej wadze. Tylko że jedynie niektóre komórki, sprzęty, odtwarzacze DVD mogą odtwarzać tylko jedno albo drugie. I wtedy kombinujemy.
[Obrazek: n13.gif]
Odpowiedz
Proszę o pomoc! Zrenderowałem swój film. Podaje tutaj dokładne dane tego filmiku:
Kod:
General
Complete name                    : Film.wmv
Format                           : Windows Media
File size                        : 26.4 MiB
Duration                         : 1mn 46s
Overall bit rate mode            : Constant
Overall bit rate                 : 2 089 Kbps
Maximum Overall bit rate         : 6 342 Kbps
Encoded date                     : UTC 2011-08-27 16:02:09.248
SfOriginalFPS                    : 299700

Video
ID                               : 2
Format                           : VC-1
Format profile                   : MP@HL
Codec ID                         : WMV3
Codec ID/Info                    : Windows Media Video 9
Codec ID/Hint                    : WMV3
Description of the codec         : Windows Media Video 9 - Professional
Duration                         : 1mn 46s
Bit rate mode                    : Constant
Bit rate                         : 6 099 Kbps
Width                            : 1 280 pixels
Height                           : 720 pixels
Display aspect ratio             : 16:9
Frame rate                       : 29.970 fps
Bit depth                        : 8 bits
Scan type                        : Progressive
Compression mode                 : Lossy
Bits/(Pixel*Frame)               : 0.221
Stream size                      : 77.1 MiB
Language                         : Polish

Audio
ID                               : 1
Format                           : WMA
Format version                   : Version 2
Codec ID                         : 161
Codec ID/Info                    : Windows Media Audio
Description of the codec         : Windows Media Audio 9.2 - 192 kbps, 48 kHz, stereo (A/V) 1-pass CBR
Duration                         : 1mn 46s
Bit rate mode                    : Constant
Bit rate                         : 192 Kbps
Channel(s)                       : 2 channels
Sampling rate                    : 48.0 KHz
Bit depth                        : 16 bits
Stream size                      : 2.43 MiB (9%)
Language                         : Polish

Problem polega na tym, że film ma 1:46 jednak jak wrzucę go na YouTube filmik ma łącznie 1:47. W czy tkwi problem? Zawsze jak konwertuję otrzymuje taki sam wynik :( Nie wiem czy to problema YT czy ja coś źle robię w Vegasie.
Odpowiedz
Wyrenderuj w mp4, kodek Sony AVC i zobacz jak wygląda sytuacja.
Odpowiedz
(08-27-2011, 19:09)krasux napisał(a):  Wyrenderuj w mp4, kodek Sony AVC i zobacz jak wygląda sytuacja.

Fakt pomogło. Wielkie dzięki.
Odpowiedz
Proszę bardzo.
Odpowiedz



   


Skocz do:


Użytkownicy przeglądający ten wątek: 1 gości