Jak renderować filmiki na YT.
Witam serdecznie.
Na innym forum nie udzielono mi odpowiedzi, więc spróbuję tutaj.
Od kilku dni bawię się z ustawieniami Sony Vegas do jak najlepszej jakości do Youtube. Niestety zauważyłem, że najlepszą jakość uzyskuję zgrywając film bezpośrednio z kamery. Jaki jest więc jest sens bawić się w renderowanie, itp?
Zauważyłem też, że moje filmy odtwarzane za pomocą np KMD Player są w super jakości, po wrzuceniu na Yotube tragedia.
Z góry dzięki za pomoc.
Odpowiedz
Cytat:Jaki jest więc jest sens bawić się w renderowanie, itp?
Jeżeli zmontujesz już film, dodasz przejścia ewentualnie jakieś efekty - musisz to jakoś zapisać, nie?
Cytat:Zauważyłem też, że moje filmy odtwarzane za pomocą np KMD Player są w super jakości, po wrzuceniu na Yotube tragedia.
Youtube kompresuje film do bardzo niskiego bitrate. Wszystko aby film się szybciej ładował.
Odpowiedz
(08-23-2011, 0:18)efix napisał(a):  Nie wiem czemu, ale jak zaczynasz pisać cokolwiek o technice, np. "identyczne ustawienia" w tym wypadku jakoś hmm jakoś nie mam zaufania do tych wypowiedzi.

W takim razie jak znajdę czas to wrzucę screeny porównawcze jak i oba wyrenderowane fragmenty i wtedy zobaczymy.

Później.

W tym wypadku może bitrate był mniejszy w przypadku pliku MP4 o jakieś 500.
[Obrazek: n13.gif]
Odpowiedz
Do takich zabaw powinno się podejść inaczej. Wystawić gdzieś jakiś "surowy" film i niech parę osób zrobi kompresje tego samego i to jeszcze do różnych serwisów. Wtedy można robić porównania.

Maciej Lewandowski - efix.pl
Odpowiedz
Myślałem o tym ostatnio, nagrać krajobraz kamerką i następnie wrzucać na YT zakodowany różnymi kodekami, o różnych parametrach. Niestety dla mnie samego za dużo by to było, po potrzeba kilka nagrań o różnym charakterze. Jedno dynamiczne, drugie statyczne i trzecie umiarkowane. Wszystkie należałoby zakodować w kilka (kilkanaście) różnych sposobów i kolejno wrzucać na YT/vimeo itd.

Dziś robiłem testy odnośnie tego z iloma fps jest odtwarzany film na YT. Wygląda na to, że nie ma znaczenia jaki to jest film. Zazwyczaj jest 29fps. Czasem spadnie do 28, częściej wzrośnie do 30. Nie patrzę na momenty typu włączenie pełnego ekranu itp.

Odpowiedz
Głupie pytanie - jak sprawdzasz z jaką fps YT wyświetla Ci film? Już raz tu przerobiliśmy temat konwersji przez YT wszystkiego do 23,97 fps, teraz czytam, że wyświetla wszystko pi razy oko 30fps.

Maciej Lewandowski - efix.pl
Odpowiedz
Fraps.


Jestem ciekawy czy u innych też tak to wygląda.


Z tą konwersją wszystkiego do 23,976 miałem pewnie pecha, że trafiłem na wszystkie materiały tak zakodowane.

Teraz sprawdzałem różne kombinacje, zarówno to lepsze filmy jak i nagrywane komórką głupoty.
Odpowiedz
Po zbuforowaniu wyciągnij filmik z Temporary internet files - będziesz miał bez przkłamania to, co się zassało z sieci.
Wtedy zobaczysz, że filmiki mają różną ilość FPS...
Przykładowy filmik (pierwszy z brzegu)

General
Format : Flash Video
File size : 1.32 MiB
Duration : 29s 533ms
Overall bit rate : 374 Kbps
httphostheader : o-o.preferred.plix-waw1.v13.lscache8.c.youtube.com

Video
Format : AVC
Format/Info : Advanced Video Codec
Format profile : Main@L2.1
Format settings, CABAC : Yes
Format settings, ReFrames : 3 frames
Format settings, GOP : M=1, N=30
Codec ID : 7
Duration : 29s 600ms
Bit rate : 291 Kbps
Width : 448 pixels
Height : 336 pixels
Display aspect ratio : 4:3
Frame rate mode : Constant
Frame rate : 15.000 fps
Color space : YUV
Chroma subsampling : 4:2:0
Bit depth : 8 bits
Scan type : Progressive
Bits/(Pixel*Frame) : 0.129
Stream size : 1.03 MiB (78%)

Audio
Format : AAC
Format/Info : Advanced Audio Codec
Format profile : LC
Codec ID : 10
Duration : 29s 605ms
Bit rate : 76.6 Kbps
Channel(s) : 1 channel
Channel positions : Front: C
Sampling rate : 44.1 KHz
Compression mode : Lossy
Stream size : 277 KiB (20%)
Odpowiedz
Tak, wiem jaką mają ilość FPS. Jest zawsze zgodna z tym, co wrzucasz na YT.

Dla kolejnych testów chciałem sprawdzić ile fraps pokaże i jest 28-30fps. Zastanawiam się skąd się bierze taka ilość fps.
Odpowiedz
...może ja czegoś nie rozumiem.
Czym jest FRAPS - bo ja znam tylko taki programik do przechwytywania obrazu (video).
Jeśli o to Ci chodzi, to w zakładce movies mamy do wyboru: 25fps, 30, 50 60 lub dowolnie wpisaną wartość (domyślnie właśnie wpisane jest 29,97).
Odpowiedz



   


Skocz do:


Użytkownicy przeglądający ten wątek: 1 gości