Brak dźwięku
#11
Spoko. Każdy chce pomóc... :) Ja tu nie widzę konfliktu. mañana ;)
Odpowiedz
#12
(05-18-2012, 10:53)elimerin napisał(a):  @annmedia
WMM importuje AC3 bezproblemowo i nie, nie pomyliłem tego z mp3.

Kolego elimerin wlasnie sprawdzilem teraz, niestety pod windows xp WMM nie importuje AC3!!! Wiec nie wiem jak to zorbiles ale nie ma takiej mozliwosci.
(05-18-2012, 11:15)mateuszszar napisał(a):  Spoko. Każdy chce pomóc... :) Ja tu nie widzę konfliktu. mañana ;)

Por la mañana :)
Odpowiedz
#13
Posiadam WMM w wersji 5.1, który zainstalował mi się standardowo wraz z Windowsem XP. Nie modyfikowałem go w żaden sposób.
Co do tego dźwięku to nie pozostaje mi chyba nic innego jak oddzielić audio od wideo programem typu VirtualDub, przekonwertować ten dźwięk na jakiś obsługiwany przez Vegasa format i wstawić do projektu jako osobną ścieżkę.

Serdecznie dziękuję wszystkim za burzę mózgów i pomoc :) Pozdrawiam.

@anmedia
to dziwne, przecież nie pisałbym tego gdybym nie był pewien. Sprawdziłem dosłownie teraz jeszcze raz. Wczytuje do WMM ten sam film i program nie ma żadnego problemu z dźwiękiem, zarówno gdy odtwarza klipy czy już jako projekt. Nie wiem jakim cudem to się dzieję, ale pisze tak jak jest ;)

A konfliktu nie ma żadnego :) każdy chce pomóc za co jestem bardzo wdzięczny.
Odpowiedz
#14
Ok, a mozesz dac skan z programu Media Info tego klipu filmowego? To pomoze bardzo. Dlaczego, ja sprawdzalem swoj plik AC3, ktory generowalem sam. I niestety ale WMM nie widzial go wogole, a po wsadzeniu na sile recznie wyskakuje blad.
Odpowiedz
#15
Prosze:


Format : AVI
Format/Info : Audio Video Interleave
Format profile : OpenDML
File size : 9.38 GiB
Duration : 1h 53mn
Overall bit rate : 11.8 Mbps
Writing application : Lavf53.0.3

Video
ID : 0
Format : xvid
Codec ID : xvid
Duration : 1h 53mn
Bit rate : 11.2 Mbps
Width : 1 920 pixels
Height : 816 pixels
Display aspect ratio : 2.35:1
Frame rate : 23.976 fps
Bits/(Pixel*Frame) : 0.298
Stream size : 8.87 GiB (95%)
Title : x264 2pass @ 17190 kb/s

Audio
ID : 1
Format : AC-3
Format/Info : Audio Coding 3
Mode extension : CM (complete main)
Format settings, Endianness : Big
Codec ID : 2000
Duration : 1h 53mn
Bit rate mode : Constant
Bit rate : 640 Kbps
Channel(s) : 6 channels
Channel positions : Front: L C R, Side: L R, LFE
Sampling rate : 48.0 KHz
Bit depth : 16 bits
Compression mode : Lossy
Stream size : 519 MiB (5%)
Alignment : Aligned on interleaves
Interleave, duration : 32 ms (0.77 video frame)
Title : English DTSHD-MA 5.1
Odpowiedz
#16
Dzieki, trudne jest to do wytlumaczenia. Zobacz http://support.microsoft.com/kb/308464 wiec jak moze zaimportowac dzwiek w tym formacie? Moze importuje sciezke video ale dzwieku nie slychac w co watpie, bo powinien wyskoczyc blad.
Tam na stronie masz nawet info ze nie obsluguje mpeg2, tzn w zaleznosci od zainstalowanych kodekow, co i tak wcale nie oznacza ze nie wyskocza problemy. Juz nie mowiac o importowaniu innych formatow.
Odpowiedz
#17
No ja nie potrafię Ci tego wytłumaczyć, wiem jedynie to co widzę i słyszę. A widzę i słyszę, że WMM importuje i odtwarza ten film razem z dźwiękiem. Jakim cudem to już nie mam pojęcia :)
Odpowiedz
#18
Sprawdź proszę, czy ten plik możesz dodać do DVDArchitect i czy masz tam dźwięk.

Maciej Lewandowski - efix.pl
Odpowiedz
#19
Nie doczytałem, dźwięk AC3 jednak, a nie DTS tak jak w nazwie pliku:) Żeby audio AC3 5.1 mogło być wczytane do Vegasa, musi być razem z video MPEG2 w kontenerze np. VOB, MTS, M2TS.
Odpowiedz
#20
Ale chyba piszesz o metodzie "zgrania" filmu, bo bezposrednio wciagnac na sciezke tego nie mozesz. A nie wiem czy M2TS "zgrasz" ta metoda z Vegasa.
Odpowiedz



   


Podobne wątki
Wątek: Autor Odpowiedzi: Wyświetleń: Ostatni post
  Brak dzwięku importowanego wideo do Sony Vegas 13 firedevil 25 10,020 08-09-2018, 12:54
Ostatni post: mateuszszar
  brak dźwięku i wykresu na osi audio aLaaN 6 870 06-07-2017, 21:39
Ostatni post: mateuszszar
  Brak przestrzeni w dzwięku po renderze w vegasie raf7677 5 1,086 08-06-2016, 0:11
Ostatni post: Bunch
  Problem z zapisanym projektem - czarny obraz, brak dźwięku ZAFIRa 10 2,678 01-18-2016, 0:04
Ostatni post: ZAFIRa
  Brak dźwięku po przetworzeniu filmu SVP13 Problem 4 1,682 08-29-2015, 11:17
Ostatni post: mateuszszar
  Brak dźwięku w niektórych fragmentach Stach 0 929 02-11-2015, 19:16
Ostatni post: Stach

Skocz do:


Użytkownicy przeglądający ten wątek: 1 gości