Błędy renderowania - filmowe konie
#1
Witam serdecznie.
Na wstępie zaznaczam, że nie mam siły już do tego programu :P próbowałem tysiąc ustawień.
Materiał filmowy (zrzut z mediainfo)

Kod:
Format profile              : Base Media / Version 2
Codec ID                    : mp42 (isom/mp42)
File size                   : 169 MiB
Duration                    : 1mn 10s
Overall bit rate            : 20.1 Mbps
Encoded date                : UTC 2017-03-18 16:28:47
Tagged date                 : UTC 2017-03-18 16:28:47

Video
ID                          : 1
Format                      : AVC
Format/Info                 : Advanced Video Codec
Format profile              : Baseline@L4
Format settings, CABAC      : No
Format settings, ReFrames   : 1 frame
Format settings, GOP        : M=1, N=30
Codec ID                    : avc1
Codec ID/Info               : Advanced Video Coding
Duration                    : 1mn 10s
Source duration             : 1mn 10s
Bit rate                    : 20.0 Mbps
Width                       : 1 920 pixels
Height                      : 1 080 pixels
Display aspect ratio        : 16:9
Frame rate mode             : Variable
Frame rate                  : 23.882 fps
Minimum frame rate          : 17.585 fps
Maximum frame rate          : 24.122 fps
Color space                 : YUV
Chroma subsampling          : 4:2:0
Bit depth                   : 8 bits
Scan type                   : Progressive
Bits/(Pixel*Frame)          : 0.403
Stream size                 : 168 MiB (99%)
Source stream size          : 168 MiB (99%)
Title                       : VideoHandle
Language                    : English
Encoded date                : UTC 2017-03-18 16:28:47
Tagged date                 : UTC 2017-03-18 16:28:47
mdhd_Duration               : 70330

Audio
ID                          : 2
Format                      : AAC
Format/Info                 : Advanced Audio Codec
Format profile              : LC
Codec ID                    : 40
Duration                    : 1mn 10s
Bit rate mode               : Constant
Bit rate                    : 96.0 Kbps
Channel(s)                  : 2 channels
Channel positions           : Front: L R
Sampling rate               : 48.0 KHz
Frame rate                  : 46.875 fps (1024 spf)
Compression mode            : Lossy
Stream size                 : 826 KiB (0%)
Title                       : SoundHandle
Language                    : English
Encoded date                : UTC 2017-03-18 16:28:47
Tagged date                 : UTC 2017-03-18 16:28:47
mdhd_Duration               : 70464

Próbowałem w 720, 1080p, 30fps, 25fps, 23.976, sam wpisywałem fps.
Próbowałem w Main Concept AVC to samo.
Jakieś zielone klatki, lagi w filmie, albo stojący obraz, albo tylko dźwięk bez obrazu, konie, przeskoki, ani milisekundy płynnego obrazy.
Materiał nagrywany telefonem Alcatel Idol 3 w 1080p.
Ustawienia kamery :
Rozmiar: 10M 16:9
Ekspozycja 0
Antypasmow 50Hz
Jakość wideo 1080p
EIS - włączone
Chcę wyrenderować przynajmniej do 720p.
Próbki renderingu wykonywałem na gołym materiale - bez żadnych efektów bez niczego, po prostu kawałek materiału źródłowego.
Liczę na pomoc :)
Z góry dzięki !
Odpowiedz



   


Podobne wątki
Wątek: Autor Odpowiedzi: Wyświetleń: Ostatni post
  Efekty filmowe wojcieszy 12 2,346 08-16-2016, 8:00
Ostatni post: szczemp
  dzwieki filmowe przesów itp. blysk_kielce 8 2,704 01-13-2011, 14:00
Ostatni post: blysk_kielce

Skocz do:


Użytkownicy przeglądający ten wątek: 1 gości